Navigation:

Davis Cup Complete Tennis PlayStation

Game

Variants

Unpublished Variants

    Disabled Variants

      Merged Game Entries

        front image

        Click on an image to upload and/or replace an image.

        __back image
        banner image

        Your changes must be accepted by a moderator before they are fully visible. Until then, your changes will be shown with orange color.

        -100
        Incorrect variant uuid: b7e39a44-c511-5817-9963-36a7c337823f
        title image
        screen1 image
        screen2 image
        screen3 image
        screen4 image
        screen5 image
        2db621e2-0189-474e-a496-26db66b0c935

        Davis Cup Complete Tennis

        developer
        Dome Software Developments, The
        thevoice
        front_sha1 thevoice
        game_name
        Davis Cup Complete Tennis
        [Importer]
        longplay_url thevoice
        mobygames_url thevoice
        platform
        psx
        [Importer]
        players
        1 - 2 (2)
        thevoice
        publish
        1
        thevoice
        publisher
        Telstar
        thevoice
        screen1_sha1 thevoice
        screen2_sha1 thevoice
        screen3_sha1 thevoice
        screen4_sha1 thevoice
        screen5_sha1 thevoice
        tags thevoice
        title_sha1 thevoice
        year
        1996
        thevoice
        _type
        1
        [Importer]
        __back_sha1 thevoice
        b7e39a44-c511-5817-9963-36a7c337823f

        CUE, Europe

        cue_sheets
        [{"data": "FILE \"Davis Cup Complete Tennis (Europe) (Track 1).bin\" BINARY\r\nTRACK 01 MODE2/2352\r\nINDEX 01 00:00:00\r\nFILE \"Davis Cup Complete Tennis (Europe) (Track 2).bin\" BINARY\r\nTRACK 02 AUDIO\r\nINDEX 00 00:00:00\r\nINDEX 01 00:02:00\r\nFILE \"Davis Cup Complete Tennis (Europe) (Track 3).bin\" BINARY\r\nTRACK 03 AUDIO\r\nINDEX 00 00:00:00\r\nINDEX 01 00:02:00\r\nFILE \"Davis Cup Complete Tennis (Europe) (Track 4).bin\" BINARY\r\nTRACK 04 AUDIO\r\nINDEX 00 00:00:00\r\nINDEX 01 00:02:00\r\nFILE \"Davis Cup Complete Tennis (Europe) (Track 5).bin\" BINARY\r\nTRACK 05 AUDIO\r\nINDEX 00 00:00:00\r\nINDEX 01 00:02:00\r\nFILE \"Davis Cup Complete Tennis (Europe) (Track 6).bin\" BINARY\r\nTRACK 06 AUDIO\r\nINDEX 00 00:00:00\r\nINDEX 01 00:02:00\r\nFILE \"Davis Cup Complete Tennis (Europe) (Track 7).bin\" BINARY\r\nTRACK 07 AUDIO\r\nINDEX 00 00:00:00\r\nINDEX 01 00:02:00\r\nFILE \"Davis Cup Complete Tennis (Europe) (Track 8).bin\" BINARY\r\nTRACK 08 AUDIO\r\nINDEX 00 00:00:00\r\nINDEX 01 00:02:00\r\nFILE \"Davis Cup Complete Tennis (Europe) (Track 9).bin\" BINARY\r\nTRACK 09 AUDIO\r\nINDEX 00 00:00:00\r\nINDEX 01 00:02:00", "name": "Davis Cup Complete Tennis (Europe).cue"}]
        [Importer]
        file_list
        [{"name": "Davis Cup Complete Tennis (Europe) (Track 1).bin", "sha1": "4db58b826f5d00e554869d5f2b482b14677f4b47", "size": 122329872}, {"name": "Davis Cup Complete Tennis (Europe) (Track 2).bin", "sha1": "572908bccc142462de5310f707fcc238c0fbd6f5", "size": 33840576}, {"name": "Davis Cup Complete Tennis (Europe) (Track 3).bin", "sha1": "e8d68b2ee31831dd084c50275e4b2a30899320d4", "size": 34560288}, {"name": "Davis Cup Complete Tennis (Europe) (Track 4).bin", "sha1": "cd2eb9f18ffe0ab4b3586507b281e89ba2aa35d7", "size": 33099696}, {"name": "Davis Cup Complete Tennis (Europe) (Track 5).bin", "sha1": "1612970dc73df70826f0a0892f0737161cb3c8e1", "size": 13469904}, {"name": "Davis Cup Complete Tennis (Europe) (Track 6).bin", "sha1": "6929a83d5598b2cc7f068d5c59e634e3ab963861", "size": 11042640}, {"name": "Davis Cup Complete Tennis (Europe) (Track 7).bin", "sha1": "8d9b1efb9057c8ada696c5002ac4098c479ebdd1", "size": 9986592}, {"name": "Davis Cup Complete Tennis (Europe) (Track 8).bin", "sha1": "bfb34ac54eedade8c24f1541c6f3149b4f89ee34", "size": 12830160}, {"name": "Davis Cup Complete Tennis (Europe) (Track 9).bin", "sha1": "572908bccc142462de5310f707fcc238c0fbd6f5", "size": 33840576}]
        [Importer]
        languages
        en
        thevoice
        parent_uuid
        2db621e2-0189-474e-a496-26db66b0c935
        [Importer]
        platform
        psx psx
        [Importer]
        psx_model
        pal
        [Importer]
        sbi_data
        [Importer]
        tag_redump
        2019-04-28
        [Importer]
        variant_name
        CUE, Europe
        [Importer]
        x_name
        Davis Cup Complete Tennis, CUE, Europe, Redump
        [Importer]
        _type
        2
        [Importer]
        __imported
        2018-01-30
        [Importer]

        Override the images from the main game entry. (It can be useful to upload language-specific screens, but don't use unless needed):

        front image
        __back image
        title image
        banner image
        screen1 image
        screen2 image
        screen3 image
        screen4 image
        screen5 image