Navigation:

Sherlock Holmes - Consulting Detective - Volume 2 TurboGrafx-CD

Game

Variants

Unpublished Variants

    Disabled Variants

      Merged Game Entries

        front image

        Click on an image to upload and/or replace an image.

        __back image
        banner image

        Your changes must be accepted by a moderator before they are fully visible. Until then, your changes will be shown with orange color.

        title image
        screen1 image
        screen2 image
        screen3 image
        screen4 image
        screen5 image
        e26513a9-44e6-488d-81af-fa33c0ba98fe

        Sherlock Holmes - Consulting Detective - Volume 2

        developer
        ICOM Simulations
        thevoice
        front_sha1 thevoice
        game_name
        Sherlock Holmes - Consulting Detective - Volume 2
        [Importer]
        mobygames_url thevoice
        platform
        tgcd
        [Importer]
        players
        1
        thevoice
        publish
        1
        thevoice
        publisher
        Turbo Technologies
        thevoice
        screen1_sha1 thevoice
        screen2_sha1 thevoice
        screen3_sha1 thevoice
        screen4_sha1 thevoice
        screen5_sha1 thevoice
        tags thevoice
        title_sha1 thevoice
        wikipedia_url thevoice
        year
        1993
        thevoice
        _type
        1
        [Importer]
        __back_sha1 thevoice
        61ceb9f1-cf3d-5f3d-9b06-c09cef68fa5a

        CUE, Japan

        cue_sheets
        [{"data": "CATALOG 0000000000000\r\nFILE \"Sherlock Holmes - Consulting Detective Vol. II (Japan).bin\" BINARY\r\nTRACK 01 MODE1/2352\r\nINDEX 01 00:00:00", "name": "Sherlock Holmes - Consulting Detective Vol. II (Japan).cue"}]
        [Importer]
        file_list
        [{"name": "Sherlock Holmes - Consulting Detective Vol. II (Japan).bin", "sha1": "735ff871c9b2b39f7bf4c5580b89a676b675fe59", "size": 700484400}]
        [Importer]
        front_sha1 thevoice
        languages
        ja
        thevoice
        parent_uuid
        e26513a9-44e6-488d-81af-fa33c0ba98fe
        thevoice
        platform
        tgcd tgcd
        [Importer]
        tag_redump
        2019-04-30
        [Importer]
        title_sha1 thevoice
        variant_name
        CUE, Japan
        [Importer]
        x_name
        Sherlock Holmes - Consulting Detective Vol. II, CUE, Japan, Redump
        [Importer]
        _refresh
        5
        [Importer]
        _type
        2
        [Importer]
        __back_sha1 thevoice
        __imported
        2017-09-18
        [Importer]

        Override the images from the main game entry. (It can be useful to upload language-specific screens, but don't use unless needed):

        front image
        __back image
        title image
        banner image
        screen1 image
        screen2 image
        screen3 image
        screen4 image
        screen5 image
        b5eecbb8-dd6e-53b6-b72d-c972f319f7a0

        CUE, USA

        cue_sheets
        [{"data": "CATALOG 0000000000000\r\nFILE \"Sherlock Holmes - Consulting Detective - Volume 2 (USA) (Track 1).bin\" BINARY\r\nTRACK 01 AUDIO\r\nINDEX 01 00:00:00\r\nFILE \"Sherlock Holmes - Consulting Detective - Volume 2 (USA) (Track 2).bin\" BINARY\r\nTRACK 02 MODE1/2352\r\nINDEX 00 00:00:00\r\nINDEX 01 00:03:00", "name": "Sherlock Holmes - Consulting Detective - Volume 2 (USA).cue"}]
        [Importer]
        file_list
        [{"name": "Sherlock Holmes - Consulting Detective - Volume 2 (USA) (Track 1).bin", "sha1": "b8acd880bc35cc663b77a4c8fe62a4a7aa146b3f", "size": 2575440}, {"name": "Sherlock Holmes - Consulting Detective - Volume 2 (USA) (Track 2).bin", "sha1": "17a0234590d08f3b5fbea92aa86891a045838cf5", "size": 701269968}]
        [Importer]
        languages
        en
        thevoice
        parent_uuid
        e26513a9-44e6-488d-81af-fa33c0ba98fe
        [Importer]
        platform
        tgcd tgcd
        [Importer]
        tag_redump
        2019-04-30
        [Importer]
        variant_name
        CUE, USA
        [Importer]
        x_name
        Sherlock Holmes - Consulting Detective - Volume 2, CUE, USA, Redump
        [Importer]
        _type
        2
        [Importer]

        Override the images from the main game entry. (It can be useful to upload language-specific screens, but don't use unless needed):

        front image
        __back image
        title image
        banner image
        screen1 image
        screen2 image
        screen3 image
        screen4 image
        screen5 image