Navigation:

Capcom Generation - Dai-5-shuu Kakutouka-tachi PlayStation

Game

Variants

Unpublished Variants

    Disabled Variants

      Merged Game Entries

        front image

        Click on an image to upload and/or replace an image.

        __back image
        banner image

        Your changes must be accepted by a moderator before they are fully visible. Until then, your changes will be shown with orange color.

        title image
        screen1 image
        screen2 image
        screen3 image
        screen4 image
        screen5 image
        e09cdccc-f6d3-4336-89d4-ffbd6395d225

        Capcom Generation - Dai-5-shuu Kakutouka-tachi

        developer
        Capcom
        thevoice
        front_sha1 thevoice
        game_name
        Capcom Generation - Dai-5-shuu Kakutouka-tachi
        [Importer]
        game_name_eu
        Street Fighter Collection 2
        thevoice
        game_name_us
        Street Fighter Collection 2
        thevoice
        longplay_url thevoice
        mobygames_url thevoice
        platform
        psx
        [Importer]
        players
        1 - 2 (2)
        thevoice
        publish
        1
        thevoice
        publisher
        Capcom
        thevoice
        screen1_sha1 thevoice
        screen2_sha1 thevoice
        screen3_sha1 thevoice
        screen4_sha1 thevoice
        screen5_sha1 thevoice
        tags thevoice
        title_sha1 thevoice
        wikipedia_url thevoice
        year
        1998
        thevoice
        _type
        1
        [Importer]
        __back_sha1 thevoice
        74505c84-474e-58b2-901c-c5effa352311

        CUE, USA

        cue_sheets
        [{"data": "FILE \"Street Fighter Collection 2 (USA) (Track 1).bin\" BINARY\r\nTRACK 01 MODE2/2352\r\nINDEX 01 00:00:00\r\nFILE \"Street Fighter Collection 2 (USA) (Track 2).bin\" BINARY\r\nTRACK 02 AUDIO\r\nINDEX 00 00:00:00\r\nINDEX 01 00:02:00", "name": "Street Fighter Collection 2 (USA).cue"}]
        [Importer]
        file_list
        [{"name": "Street Fighter Collection 2 (USA) (Track 1).bin", "sha1": "34419fe1abcc1703c0ed9d0b66da6abf45f3441c", "size": 450201024}, {"name": "Street Fighter Collection 2 (USA) (Track 2).bin", "sha1": "d9f92af296360772e62caa4cb276de3fa74f5538", "size": 37396800}]
        [Importer]
        front_sha1 thevoice
        languages
        en
        thevoice
        parent_uuid
        e09cdccc-f6d3-4336-89d4-ffbd6395d225
        thevoice
        platform
        psx psx
        [Importer]
        psx_model
        ntsc
        [Importer]
        sbi_data
        [Importer]
        tag_redump
        2019-04-28
        [Importer]
        title_sha1 thevoice
        variant_name
        CUE, USA
        [Importer]
        x_name
        Street Fighter Collection 2, CUE, USA, Redump
        [Importer]
        _type
        2
        [Importer]
        __back_sha1 thevoice
        __imported
        2018-01-30
        [Importer]

        Override the images from the main game entry. (It can be useful to upload language-specific screens, but don't use unless needed):

        front image
        __back image
        title image
        banner image
        screen1 image
        screen2 image
        screen3 image
        screen4 image
        screen5 image
        5b0d8f5f-bea7-5fbf-b96f-b3cb1a15ac9e

        CUE, Europe

        cue_sheets
        [{"data": "FILE \"Street Fighter Collection 2 (Europe) (Track 1).bin\" BINARY\r\nTRACK 01 MODE2/2352\r\nINDEX 01 00:00:00\r\nFILE \"Street Fighter Collection 2 (Europe) (Track 2).bin\" BINARY\r\nTRACK 02 AUDIO\r\nINDEX 00 00:00:00\r\nINDEX 01 00:02:00", "name": "Street Fighter Collection 2 (Europe).cue"}]
        [Importer]
        file_list
        [{"name": "Street Fighter Collection 2 (Europe) (Track 1).bin", "sha1": "93a14204efc20100d8707bd79d88437dd217a69e", "size": 456469104}, {"name": "Street Fighter Collection 2 (Europe) (Track 2).bin", "sha1": "d9f92af296360772e62caa4cb276de3fa74f5538", "size": 37396800}]
        [Importer]
        front_sha1 thevoice
        languages
        en
        thevoice
        parent_uuid
        e09cdccc-f6d3-4336-89d4-ffbd6395d225
        thevoice
        platform
        psx psx
        [Importer]
        psx_model
        pal
        [Importer]
        sbi_data
        [Importer]
        tag_redump
        2019-04-28
        [Importer]
        title_sha1 thevoice
        variant_name
        CUE, Europe
        [Importer]
        x_name
        Street Fighter Collection 2, CUE, Europe, Redump
        [Importer]
        _type
        2
        [Importer]
        __back_sha1 thevoice
        __imported
        2018-01-30
        [Importer]

        Override the images from the main game entry. (It can be useful to upload language-specific screens, but don't use unless needed):

        front image
        __back image
        title image
        banner image
        screen1 image
        screen2 image
        screen3 image
        screen4 image
        screen5 image
        7367e04d-6bcc-54d3-bfbf-b154c989fda0

        CUE, Japan

        cue_sheets
        [{"data": "FILE \"Capcom Generation - Dai-5-shuu Kakutouka-tachi (Japan) (Track 1).bin\" BINARY\r\nTRACK 01 MODE2/2352\r\nINDEX 01 00:00:00\r\nFILE \"Capcom Generation - Dai-5-shuu Kakutouka-tachi (Japan) (Track 2).bin\" BINARY\r\nTRACK 02 AUDIO\r\nINDEX 00 00:00:00\r\nINDEX 01 00:02:00", "name": "Capcom Generation - Dai-5-shuu Kakutouka-tachi (Japan).cue"}]
        [Importer]
        file_list
        [{"name": "Capcom Generation - Dai-5-shuu Kakutouka-tachi (Japan) (Track 1).bin", "sha1": "c9179d34ddf904cd308869bf89311c997d7d2885", "size": 458181360}, {"name": "Capcom Generation - Dai-5-shuu Kakutouka-tachi (Japan) (Track 2).bin", "sha1": "d9f92af296360772e62caa4cb276de3fa74f5538", "size": 37396800}]
        [Importer]
        languages
        ja
        thevoice
        parent_uuid
        e09cdccc-f6d3-4336-89d4-ffbd6395d225
        [Importer]
        platform
        psx psx
        [Importer]
        psx_model
        ntsc-j
        [Importer]
        sbi_data
        [Importer]
        tag_redump
        2019-04-28
        [Importer]
        variant_name
        CUE, Japan
        [Importer]
        x_name
        Capcom Generation - Dai-5-shuu Kakutouka-tachi, CUE, Japan, Redump
        [Importer]
        _type
        2
        [Importer]
        __imported
        2018-01-30
        [Importer]

        Override the images from the main game entry. (It can be useful to upload language-specific screens, but don't use unless needed):

        front image
        __back image
        title image
        banner image
        screen1 image
        screen2 image
        screen3 image
        screen4 image
        screen5 image