Navigation:

Capcom vs. SNK Pro PlayStation

Game

Variants

Unpublished Variants

Disabled Variants

    Merged Game Entries

      front image

      Click on an image to upload and/or replace an image.

      __back image
      banner image

      Your changes must be accepted by a moderator before they are fully visible. Until then, your changes will be shown with orange color.

      -1
      Some variants are missing language info
      title image
      screen1 image
      screen2 image
      screen3 image
      screen4 image
      screen5 image
      cf090f47-f653-442b-b640-4cd81ab55276

      Capcom vs. SNK Pro

      developer
      Capcom
      thevoice
      front_sha1 thevoice
      game_name
      Capcom vs. SNK Pro
      [Importer]
      game_name_eu
      Capcom vs. SNK - Millennium Fight 2000 Pro
      thevoice
      game_name_jp
      Capcom vs. SNK - Millennium Fight 2000 Pro
      thevoice
      longplay_url thevoice
      mobygames_url thevoice
      platform
      psx
      [Importer]
      players
      1 - 2 (2)
      thevoice
      publish
      1
      thevoice
      publisher
      Capcom
      thevoice
      screen1_sha1 thevoice
      screen2_sha1 thevoice
      screen3_sha1 thevoice
      screen4_sha1 thevoice
      screen5_sha1 thevoice
      tags thevoice
      title_sha1 thevoice
      wikipedia_url thevoice
      year
      2002
      thevoice
      _type
      1
      [Importer]
      __back_sha1 thevoice
      6706fe4d-08f3-5a01-a4ac-e55d0ba212db

      CUE, USA

      cue_sheets
      [{"data": "FILE \"Capcom vs. SNK Pro (USA).bin\" BINARY\r\nTRACK 01 MODE2/2352\r\nINDEX 01 00:00:00", "name": "Capcom vs. SNK Pro (USA).cue"}]
      [Importer]
      file_list
      [{"name": "Capcom vs. SNK Pro (USA).bin", "sha1": "6f1398891993c67f5ee388eb41c3004644ece180", "size": 616609728}]
      [Importer]
      languages
      en
      thevoice
      parent_uuid
      cf090f47-f653-442b-b640-4cd81ab55276
      [Importer]
      platform
      psx psx
      [Importer]
      psx_model
      ntsc
      [Importer]
      sbi_data
      [Importer]
      tag_redump
      2019-04-28
      [Importer]
      variant_name
      CUE, USA
      [Importer]
      x_name
      Capcom vs. SNK Pro, CUE, USA, Redump
      [Importer]
      _type
      2
      [Importer]
      __imported
      2018-01-30
      [Importer]

      Override the images from the main game entry. (It can be useful to upload language-specific screens, but don't use unless needed):

      front image
      __back image
      title image
      banner image
      screen1 image
      screen2 image
      screen3 image
      screen4 image
      screen5 image
      b3b93730-b9ef-4b08-bfeb-d3ce72cc6809
      Languages

      Capcom vs. SNK - Millennium Fight 2000 Pro

      game_name
      Capcom vs. SNK - Millennium Fight 2000 Pro Capcom vs. SNK Pro
      [Importer]
      parent_uuid
      cf090f47-f653-442b-b640-4cd81ab55276
      thevoice
      platform
      psx psx
      [Importer]
      publish
      0 1
      [Importer]
      _type
      1
      [Importer]

      Override the images from the main game entry. (It can be useful to upload language-specific screens, but don't use unless needed):

      front image
      __back image
      title image
      banner image
      screen1 image
      screen2 image
      screen3 image
      screen4 image
      screen5 image
      f6909b79-724e-52fe-9a9d-4b939f58a07c

      CUE, Europe

      cue_sheets
      [{"data": "FILE \"Capcom vs. SNK - Millennium Fight 2000 Pro (Europe) (Track 1).bin\" BINARY\r\nTRACK 01 MODE2/2352\r\nINDEX 01 00:00:00\r\nFILE \"Capcom vs. SNK - Millennium Fight 2000 Pro (Europe) (Track 2).bin\" BINARY\r\nTRACK 02 AUDIO\r\nINDEX 00 00:00:00\r\nINDEX 01 00:02:00", "name": "Capcom vs. SNK - Millennium Fight 2000 Pro (Europe).cue"}]
      [Importer]
      file_list
      [{"name": "Capcom vs. SNK - Millennium Fight 2000 Pro (Europe) (Track 1).bin", "sha1": "4ebc03caf94ea58328e027b31c282d261bde1c5a", "size": 580480656}, {"name": "Capcom vs. SNK - Millennium Fight 2000 Pro (Europe) (Track 2).bin", "sha1": "73481a853af449ce9ffdbe228d13a18129f2d8a9", "size": 31813152}]
      [Importer]
      front_sha1 thevoice
      languages
      en
      thevoice
      parent_uuid
      cf090f47-f653-442b-b640-4cd81ab55276
      thevoice
      platform
      psx psx
      [Importer]
      psx_model
      pal
      [Importer]
      sbi_data
      [Importer]
      tag_redump
      2019-04-28
      [Importer]
      title_sha1 thevoice
      variant_name
      CUE, Europe
      [Importer]
      x_name
      Capcom vs. SNK - Millennium Fight 2000 Pro, CUE, Europe, Redump
      [Importer]
      _type
      2
      [Importer]
      __back_sha1 thevoice
      __imported
      2018-01-30
      [Importer]

      Override the images from the main game entry. (It can be useful to upload language-specific screens, but don't use unless needed):

      front image
      __back image
      title image
      banner image
      screen1 image
      screen2 image
      screen3 image
      screen4 image
      screen5 image
      8139d17c-1be0-5a70-911b-9ee533c4e8b7

      CUE, Japan

      cue_sheets
      [{"data": "FILE \"Capcom vs. SNK - Millennium Fight 2000 Pro (Japan) (Track 1).bin\" BINARY\r\nTRACK 01 MODE2/2352\r\nINDEX 01 00:00:00\r\nFILE \"Capcom vs. SNK - Millennium Fight 2000 Pro (Japan) (Track 2).bin\" BINARY\r\nTRACK 02 AUDIO\r\nINDEX 00 00:00:00\r\nINDEX 01 00:02:00", "name": "Capcom vs. SNK - Millennium Fight 2000 Pro (Japan).cue"}]
      [Importer]
      file_list
      [{"name": "Capcom vs. SNK - Millennium Fight 2000 Pro (Japan) (Track 1).bin", "sha1": "5e0d84afccb2436f0ed37f8fd15e67d3eb7cf5bd", "size": 609106848}, {"name": "Capcom vs. SNK - Millennium Fight 2000 Pro (Japan) (Track 2).bin", "sha1": "73481a853af449ce9ffdbe228d13a18129f2d8a9", "size": 31813152}]
      [Importer]
      front_sha1 thevoice
      languages
      ja
      thevoice
      parent_uuid
      cf090f47-f653-442b-b640-4cd81ab55276
      thevoice
      platform
      psx psx
      [Importer]
      psx_model
      ntsc-j
      [Importer]
      sbi_data
      [Importer]
      tag_redump
      2019-04-28
      [Importer]
      title_sha1 thevoice
      variant_name
      CUE, Japan
      [Importer]
      x_name
      Capcom vs. SNK - Millennium Fight 2000 Pro, CUE, Japan, Redump
      [Importer]
      _type
      2
      [Importer]
      __back_sha1 thevoice
      __imported
      2018-01-30
      [Importer]

      Override the images from the main game entry. (It can be useful to upload language-specific screens, but don't use unless needed):

      front image
      __back image
      title image
      banner image
      screen1 image
      screen2 image
      screen3 image
      screen4 image
      screen5 image