Navigation:

DBZ - Dead Ball Zone PlayStation

Game

Variants

Unpublished Variants

    Disabled Variants

      Merged Game Entries

      front image

      Click on an image to upload and/or replace an image.

      __back image
      banner image

      Your changes must be accepted by a moderator before they are fully visible. Until then, your changes will be shown with orange color.

      -1
      Some variants are missing language info
      title image
      screen1 image
      screen2 image
      screen3 image
      screen4 image
      screen5 image
      b242111b-dbf0-42b1-b77e-dcda2c23707c

      DBZ - Dead Ball Zone

      developer
      Rage Software
      thevoice
      front_sha1 thevoice
      game_name
      DBZ - Dead Ball Zone
      [Importer]
      game_name_de
      CBZ - CyBall Zone
      thevoice
      longplay_url thevoice
      mobygames_url thevoice
      platform
      psx
      [Importer]
      players
      1 - 2 (2)
      thevoice
      publish
      1
      thevoice
      publisher
      GT Interactive Software
      thevoice
      screen1_sha1 thevoice
      screen2_sha1 thevoice
      screen3_sha1 thevoice
      screen4_sha1 thevoice
      screen5_sha1 thevoice
      tags thevoice
      title_sha1 thevoice
      year
      1998
      thevoice
      _type
      1
      [Importer]
      __back_sha1 thevoice
      27cf0735-ff20-44d6-814a-7681cd010020
      Languages

      CBZ - CyBall Zone

      disable
      Merged
      [System]
      game_name
      CBZ - CyBall Zone DBZ - Dead Ball Zone
      [Importer]
      parent_uuid
      b242111b-dbf0-42b1-b77e-dcda2c23707c
      thevoice
      platform
      psx psx
      [Importer]
      publish
      0 1
      [Importer]
      _type
      16
      [System]

      Override the images from the main game entry. (It can be useful to upload language-specific screens, but don't use unless needed):

      front image
      __back image
      title image
      banner image
      screen1 image
      screen2 image
      screen3 image
      screen4 image
      screen5 image
      ebe95c86-40de-5e4c-80b6-d24f5908343c

      CUE, Europe

      cue_sheets
      [{"data": "FILE \"DBZ - Dead Ball Zone (Europe) (En,Fr,De,Es,It).bin\" BINARY\r\nTRACK 01 MODE2/2352\r\nINDEX 01 00:00:00", "name": "DBZ - Dead Ball Zone (Europe) (En,Fr,De,Es,It).cue"}]
      [Importer]
      file_list
      [{"name": "DBZ - Dead Ball Zone (Europe) (En,Fr,De,Es,It).bin", "sha1": "ad2753606f9c9d239f5bdb1a6bd49c024e97de48", "size": 372916656}]
      [Importer]
      front_sha1 thevoice
      languages
      en, de, es, fr, it
      [Importer]
      parent_uuid
      b242111b-dbf0-42b1-b77e-dcda2c23707c
      [Importer]
      platform
      psx psx
      [Importer]
      psx_model
      pal
      [Importer]
      sbi_data
      [Importer]
      tag_redump
      2019-04-28
      [Importer]
      title_sha1 thevoice
      variant_name
      CUE, Europe
      [Importer]
      x_name
      DBZ - Dead Ball Zone, CUE, Europe, Redump
      [Importer]
      _type
      2
      [Importer]
      __back_sha1 thevoice
      __imported
      2018-01-30
      [Importer]

      Override the images from the main game entry. (It can be useful to upload language-specific screens, but don't use unless needed):

      front image
      __back image
      title image
      banner image
      screen1 image
      screen2 image
      screen3 image
      screen4 image
      screen5 image
      07a47a7c-6a5c-5a19-a3a2-e1bb94191845

      CUE, Germany

      cue_sheets
      [{"data": "FILE \"CBZ - CyBall Zone (Germany).bin\" BINARY\r\nTRACK 01 MODE2/2352\r\nINDEX 01 00:00:00", "name": "CBZ - CyBall Zone (Germany).cue"}]
      [Importer]
      file_list
      [{"name": "CBZ - CyBall Zone (Germany).bin", "sha1": "b0adc9d4c6970bcbd87d53d6a931bf8140e1ca22", "size": 372911952}]
      [Importer]
      front_sha1 thevoice
      languages
      de
      thevoice
      parent_uuid
      b242111b-dbf0-42b1-b77e-dcda2c23707c
      thevoice
      platform
      psx psx
      [Importer]
      psx_model
      pal
      [Importer]
      sbi_data
      [Importer]
      tag_redump
      2019-04-28
      [Importer]
      title_sha1 thevoice
      variant_name
      CUE, Germany
      [Importer]
      x_name
      CBZ - CyBall Zone, CUE, Germany, Redump
      [Importer]
      _type
      2
      [Importer]
      __back_sha1 thevoice
      __imported
      2018-01-30
      [Importer]

      Override the images from the main game entry. (It can be useful to upload language-specific screens, but don't use unless needed):

      front image
      __back image
      title image
      banner image
      screen1 image
      screen2 image
      screen3 image
      screen4 image
      screen5 image
      2742c8b6-a9d3-5982-b0e9-a14fe8dc1ae4

      CUE, USA

      cue_sheets
      [{"data": "FILE \"DBZ - Dead Ball Zone (USA) (En,Fr,De,Es,It).bin\" BINARY\r\nTRACK 01 MODE2/2352\r\nINDEX 01 00:00:00", "name": "DBZ - Dead Ball Zone (USA) (En,Fr,De,Es,It).cue"}]
      [Importer]
      file_list
      [{"name": "DBZ - Dead Ball Zone (USA) (En,Fr,De,Es,It).bin", "sha1": "a6a675c79dd6cc6020b721add89bcbe4bb1dc2d5", "size": 372935472}]
      [Importer]
      languages
      en, de, es, fr, it
      [Importer]
      parent_uuid
      b242111b-dbf0-42b1-b77e-dcda2c23707c
      [Importer]
      platform
      psx psx
      [Importer]
      psx_model
      ntsc
      [Importer]
      sbi_data
      [Importer]
      tag_redump
      2019-04-28
      [Importer]
      variant_name
      CUE, USA
      [Importer]
      x_name
      DBZ - Dead Ball Zone, CUE, USA, Redump
      [Importer]
      _type
      2
      [Importer]
      __imported
      2018-01-30
      [Importer]

      Override the images from the main game entry. (It can be useful to upload language-specific screens, but don't use unless needed):

      front image
      __back image
      title image
      banner image
      screen1 image
      screen2 image
      screen3 image
      screen4 image
      screen5 image