Navigation:

Mille Miglia PlayStation

Game

Variants

Unpublished Variants

    Disabled Variants

      Merged Game Entries

        front image

        Click on an image to upload and/or replace an image.

        __back image
        banner image

        Your changes must be accepted by a moderator before they are fully visible. Until then, your changes will be shown with orange color.

        title image
        screen1 image
        screen2 image
        screen3 image
        screen4 image
        screen5 image
        95b32f3b-43a6-488e-8f69-9a830bb723ef

        Mille Miglia

        developer
        Kung Fu Games
        thevoice
        front_sha1 thevoice
        game_name
        Mille Miglia
        [Importer]
        longplay_url thevoice
        mobygames_url thevoice
        platform
        psx
        [Importer]
        players
        1 - 2 (2)
        thevoice
        publish
        1
        thevoice
        publisher
        SCI
        thevoice
        screen1_sha1 thevoice
        screen2_sha1 thevoice
        screen3_sha1 thevoice
        screen4_sha1 thevoice
        screen5_sha1 thevoice
        tags thevoice
        title_sha1 thevoice
        wikipedia_url thevoice
        year
        2000
        thevoice
        _type
        1
        [Importer]
        __back_sha1 thevoice
        1e172a3d-937d-5d0c-9421-85f9cb7b1f01

        CUE, Europe

        cue_sheets
        [{"data": "FILE \"Mille Miglia (Europe) (En,Fr,De,Es,It) (Track 1).bin\" BINARY\r\nTRACK 01 MODE2/2352\r\nINDEX 01 00:00:00\r\nFILE \"Mille Miglia (Europe) (En,Fr,De,Es,It) (Track 2).bin\" BINARY\r\nTRACK 02 AUDIO\r\nINDEX 00 00:00:00\r\nINDEX 01 00:02:00\r\nFILE \"Mille Miglia (Europe) (En,Fr,De,Es,It) (Track 3).bin\" BINARY\r\nTRACK 03 AUDIO\r\nINDEX 00 00:00:00\r\nINDEX 01 00:02:00\r\nFILE \"Mille Miglia (Europe) (En,Fr,De,Es,It) (Track 4).bin\" BINARY\r\nTRACK 04 AUDIO\r\nINDEX 00 00:00:00\r\nINDEX 01 00:02:00\r\nFILE \"Mille Miglia (Europe) (En,Fr,De,Es,It) (Track 5).bin\" BINARY\r\nTRACK 05 AUDIO\r\nINDEX 00 00:00:00\r\nINDEX 01 00:02:00\r\nFILE \"Mille Miglia (Europe) (En,Fr,De,Es,It) (Track 6).bin\" BINARY\r\nTRACK 06 AUDIO\r\nINDEX 00 00:00:00\r\nINDEX 01 00:02:00\r\nFILE \"Mille Miglia (Europe) (En,Fr,De,Es,It) (Track 7).bin\" BINARY\r\nTRACK 07 AUDIO\r\nINDEX 00 00:00:00\r\nINDEX 01 00:02:00", "name": "Mille Miglia (Europe) (En,Fr,De,Es,It).cue"}]
        [Importer]
        file_list
        [{"name": "Mille Miglia (Europe) (En,Fr,De,Es,It) (Track 1).bin", "sha1": "2a4aa3b3a4b0b00438a8cda3038eadcb1316a13a", "size": 233659440}, {"name": "Mille Miglia (Europe) (En,Fr,De,Es,It) (Track 2).bin", "sha1": "c823bf8db59ac8978c8723457783ad72566447f7", "size": 44299920}, {"name": "Mille Miglia (Europe) (En,Fr,De,Es,It) (Track 3).bin", "sha1": "276415fde2d600f588ce5f8b3da61021788482fe", "size": 52503696}, {"name": "Mille Miglia (Europe) (En,Fr,De,Es,It) (Track 4).bin", "sha1": "b9df9dcaaed4db0a9c36aa35f8d353ed1d318b4e", "size": 53211648}, {"name": "Mille Miglia (Europe) (En,Fr,De,Es,It) (Track 5).bin", "sha1": "0f65cd51a979adb34ede5a7d35a87eb33fdcf7bd", "size": 52296720}, {"name": "Mille Miglia (Europe) (En,Fr,De,Es,It) (Track 6).bin", "sha1": "fcd6ccc4c8fe86470829564f73c9c14a735428e8", "size": 44767968}, {"name": "Mille Miglia (Europe) (En,Fr,De,Es,It) (Track 7).bin", "sha1": "abf9bf496ea4268b69105ec36f01202971ad1170", "size": 56102256}]
        [Importer]
        languages
        en, de, es, fr, it
        [Importer]
        parent_uuid
        95b32f3b-43a6-488e-8f69-9a830bb723ef
        [Importer]
        platform
        psx psx
        [Importer]
        psx_model
        pal
        [Importer]
        sbi_data
        [Importer]
        tag_redump
        2020-05-18
        [Importer]
        variant_name
        CUE, Europe
        [Importer]
        x_name
        Mille Miglia, CUE, Europe, Redump
        [Importer]
        _type
        2
        [Importer]
        __imported
        2018-01-30
        [Importer]

        Override the images from the main game entry. (It can be useful to upload language-specific screens, but don't use unless needed):

        front image
        __back image
        title image
        banner image
        screen1 image
        screen2 image
        screen3 image
        screen4 image
        screen5 image