Navigation:

Ryuuko no Ken TurboGrafx-CD

Game

Variants

Unpublished Variants

    Disabled Variants

      Merged Game Entries

        front image

        Click on an image to upload and/or replace an image.

        __back image
        banner image

        Your changes must be accepted by a moderator before they are fully visible. Until then, your changes will be shown with orange color.

        title image
        screen1 image
        screen2 image
        screen3 image
        screen4 image
        screen5 image
        8de841c1-99b2-4f11-a04f-640c16192505

        Ryuuko no Ken

        developer
        SNK
        thevoice
        front_sha1 thevoice
        game_name
        Ryuuko no Ken
        [Importer]
        longplay_url thevoice
        mobygames_url thevoice
        platform
        tgcd
        [Importer]
        players
        1 - 2 (2)
        thevoice
        publish
        1
        thevoice
        publisher
        Hudson Soft
        thevoice
        screen1_sha1 thevoice
        screen2_sha1 thevoice
        screen3_sha1 thevoice
        screen4_sha1 thevoice
        screen5_sha1 thevoice
        tags thevoice
        title_sha1 thevoice
        wikipedia_url thevoice
        year
        1994
        thevoice
        _refresh
        5
        [Importer]
        _type
        1
        [Importer]
        __back_sha1 thevoice
        __info
        Also known as Art of Fighting.
        thevoice
        bb1deb86-d64f-577a-b844-07f34c4e77d7

        CUE, Japan, FABT

        cue_sheets
        [{"data": "CATALOG 0000000000000\r\nFILE \"Ryuuko no Ken (Japan) (En,Ja,Es) (FABT) (Track 01).bin\" BINARY\r\nTRACK 01 AUDIO\r\nINDEX 01 00:00:00\r\nFILE \"Ryuuko no Ken (Japan) (En,Ja,Es) (FABT) (Track 02).bin\" BINARY\r\nTRACK 02 MODE1/2352\r\nINDEX 00 00:00:00\r\nINDEX 01 00:03:00\r\nFILE \"Ryuuko no Ken (Japan) (En,Ja,Es) (FABT) (Track 03).bin\" BINARY\r\nTRACK 03 AUDIO\r\nINDEX 00 00:00:00\r\nINDEX 01 00:03:00\r\nFILE \"Ryuuko no Ken (Japan) (En,Ja,Es) (FABT) (Track 04).bin\" BINARY\r\nTRACK 04 AUDIO\r\nINDEX 00 00:00:00\r\nINDEX 01 00:02:00\r\nFILE \"Ryuuko no Ken (Japan) (En,Ja,Es) (FABT) (Track 05).bin\" BINARY\r\nTRACK 05 AUDIO\r\nINDEX 00 00:00:00\r\nINDEX 01 00:02:00\r\nFILE \"Ryuuko no Ken (Japan) (En,Ja,Es) (FABT) (Track 06).bin\" BINARY\r\nTRACK 06 AUDIO\r\nINDEX 00 00:00:00\r\nINDEX 01 00:02:00\r\nFILE \"Ryuuko no Ken (Japan) (En,Ja,Es) (FABT) (Track 07).bin\" BINARY\r\nTRACK 07 AUDIO\r\nINDEX 00 00:00:00\r\nINDEX 01 00:02:00\r\nFILE \"Ryuuko no Ken (Japan) (En,Ja,Es) (FABT) (Track 08).bin\" BINARY\r\nTRACK 08 AUDIO\r\nINDEX 00 00:00:00\r\nINDEX 01 00:02:00\r\nFILE \"Ryuuko no Ken (Japan) (En,Ja,Es) (FABT) (Track 09).bin\" BINARY\r\nTRACK 09 AUDIO\r\nINDEX 00 00:00:00\r\nINDEX 01 00:02:00\r\nFILE \"Ryuuko no Ken (Japan) (En,Ja,Es) (FABT) (Track 10).bin\" BINARY\r\nTRACK 10 AUDIO\r\nINDEX 00 00:00:00\r\nINDEX 01 00:02:00\r\nFILE \"Ryuuko no Ken (Japan) (En,Ja,Es) (FABT) (Track 11).bin\" BINARY\r\nTRACK 11 AUDIO\r\nINDEX 00 00:00:00\r\nINDEX 01 00:02:00\r\nFILE \"Ryuuko no Ken (Japan) (En,Ja,Es) (FABT) (Track 12).bin\" BINARY\r\nTRACK 12 AUDIO\r\nINDEX 00 00:00:00\r\nINDEX 01 00:02:00\r\nFILE \"Ryuuko no Ken (Japan) (En,Ja,Es) (FABT) (Track 13).bin\" BINARY\r\nTRACK 13 AUDIO\r\nINDEX 00 00:00:00\r\nINDEX 01 00:02:00\r\nFILE \"Ryuuko no Ken (Japan) (En,Ja,Es) (FABT) (Track 14).bin\" BINARY\r\nTRACK 14 AUDIO\r\nINDEX 00 00:00:00\r\nINDEX 01 00:02:00\r\nFILE \"Ryuuko no Ken (Japan) (En,Ja,Es) (FABT) (Track 15).bin\" BINARY\r\nTRACK 15 AUDIO\r\nINDEX 00 00:00:00\r\nINDEX 01 00:02:00\r\nFILE \"Ryuuko no Ken (Japan) (En,Ja,Es) (FABT) (Track 16).bin\" BINARY\r\nTRACK 16 AUDIO\r\nINDEX 00 00:00:00\r\nINDEX 01 00:02:00\r\nFILE \"Ryuuko no Ken (Japan) (En,Ja,Es) (FABT) (Track 17).bin\" BINARY\r\nTRACK 17 AUDIO\r\nINDEX 00 00:00:00\r\nINDEX 01 00:02:00\r\nFILE \"Ryuuko no Ken (Japan) (En,Ja,Es) (FABT) (Track 18).bin\" BINARY\r\nTRACK 18 AUDIO\r\nINDEX 00 00:00:00\r\nINDEX 01 00:02:00\r\nFILE \"Ryuuko no Ken (Japan) (En,Ja,Es) (FABT) (Track 19).bin\" BINARY\r\nTRACK 19 AUDIO\r\nINDEX 00 00:00:00\r\nINDEX 01 00:02:00\r\nFILE \"Ryuuko no Ken (Japan) (En,Ja,Es) (FABT) (Track 20).bin\" BINARY\r\nTRACK 20 AUDIO\r\nINDEX 00 00:00:00\r\nINDEX 01 00:02:00\r\nFILE \"Ryuuko no Ken (Japan) (En,Ja,Es) (FABT) (Track 21).bin\" BINARY\r\nTRACK 21 AUDIO\r\nINDEX 00 00:00:00\r\nINDEX 01 00:02:00\r\nFILE \"Ryuuko no Ken (Japan) (En,Ja,Es) (FABT) (Track 22).bin\" BINARY\r\nTRACK 22 AUDIO\r\nINDEX 00 00:00:00\r\nINDEX 01 00:02:00\r\nFILE \"Ryuuko no Ken (Japan) (En,Ja,Es) (FABT) (Track 23).bin\" BINARY\r\nTRACK 23 AUDIO\r\nINDEX 00 00:00:00\r\nINDEX 01 00:02:00\r\nFILE \"Ryuuko no Ken (Japan) (En,Ja,Es) (FABT) (Track 24).bin\" BINARY\r\nTRACK 24 AUDIO\r\nINDEX 00 00:00:00\r\nINDEX 01 00:02:00\r\nFILE \"Ryuuko no Ken (Japan) (En,Ja,Es) (FABT) (Track 25).bin\" BINARY\r\nTRACK 25 AUDIO\r\nINDEX 00 00:00:00\r\nINDEX 01 00:02:00\r\nFILE \"Ryuuko no Ken (Japan) (En,Ja,Es) (FABT) (Track 26).bin\" BINARY\r\nTRACK 26 AUDIO\r\nINDEX 00 00:00:00\r\nINDEX 01 00:02:00\r\nFILE \"Ryuuko no Ken (Japan) (En,Ja,Es) (FABT) (Track 27).bin\" BINARY\r\nTRACK 27 AUDIO\r\nINDEX 00 00:00:00\r\nINDEX 01 00:02:00\r\nFILE \"Ryuuko no Ken (Japan) (En,Ja,Es) (FABT) (Track 28).bin\" BINARY\r\nTRACK 28 AUDIO\r\nINDEX 00 00:00:00\r\nINDEX 01 00:02:00\r\nFILE \"Ryuuko no Ken (Japan) (En,Ja,Es) (FABT) (Track 29).bin\" BINARY\r\nTRACK 29 AUDIO\r\nINDEX 00 00:00:00\r\nINDEX 01 00:02:00\r\nFILE \"Ryuuko no Ken (Japan) (En,Ja,Es) (FABT) (Track 30).bin\" BINARY\r\nTRACK 30 AUDIO\r\nINDEX 00 00:00:00\r\nINDEX 01 00:02:00\r\nFILE \"Ryuuko no Ken (Japan) (En,Ja,Es) (FABT) (Track 31).bin\" BINARY\r\nTRACK 31 AUDIO\r\nINDEX 00 00:00:00\r\nINDEX 01 00:02:00\r\nFILE \"Ryuuko no Ken (Japan) (En,Ja,Es) (FABT) (Track 32).bin\" BINARY\r\nTRACK 32 AUDIO\r\nINDEX 00 00:00:00\r\nINDEX 01 00:02:00", "name": "Ryuuko no Ken (Japan) (En,Ja,Es) (FABT).cue"}]
        [Importer]
        file_list
        [{"name": "Ryuuko no Ken (Japan) (En,Ja,Es) (FABT) (Track 01).bin", "sha1": "27c9d4eb6779e4213bfe8a375a195180cc5d119c", "size": 7914480}, {"name": "Ryuuko no Ken (Japan) (En,Ja,Es) (FABT) (Track 02).bin", "sha1": "4e78b06d56280f9a63073086ff834845153d75e4", "size": 135583392}, {"name": "Ryuuko no Ken (Japan) (En,Ja,Es) (FABT) (Track 03).bin", "sha1": "fe1e826b697a784009531bbbb84974b86d75a4aa", "size": 6703200}, {"name": "Ryuuko no Ken (Japan) (En,Ja,Es) (FABT) (Track 04).bin", "sha1": "4823931a94752c692362c9320da3155da7343a0a", "size": 705600}, {"name": "Ryuuko no Ken (Japan) (En,Ja,Es) (FABT) (Track 05).bin", "sha1": "efe9f3cf8bd0e889522ea6c37cd5939c451812f3", "size": 16329936}, {"name": "Ryuuko no Ken (Japan) (En,Ja,Es) (FABT) (Track 06).bin", "sha1": "d9e2ac48d72ca437f0e906bfd132d11b06dc4338", "size": 2133264}, {"name": "Ryuuko no Ken (Japan) (En,Ja,Es) (FABT) (Track 07).bin", "sha1": "e64c5359fd542c1e5878fc73c0116bcc88fd288b", "size": 32490528}, {"name": "Ryuuko no Ken (Japan) (En,Ja,Es) (FABT) (Track 08).bin", "sha1": "cf5af35d5ef01af96d76bfeaf88e1234f7f50c10", "size": 1996848}, {"name": "Ryuuko no Ken (Japan) (En,Ja,Es) (FABT) (Track 09).bin", "sha1": "576482ec0317cb52be58a4597ae091f5a95935b3", "size": 5498976}, {"name": "Ryuuko no Ken (Japan) (En,Ja,Es) (FABT) (Track 10).bin", "sha1": "adc3e352819b848deb1dd8b6020e9a6dedec20f8", "size": 31516800}, {"name": "Ryuuko no Ken (Japan) (En,Ja,Es) (FABT) (Track 11).bin", "sha1": "72ae92747c39cfb060083dd1719d34f069f11c6d", "size": 1408848}, {"name": "Ryuuko no Ken (Japan) (En,Ja,Es) (FABT) (Track 12).bin", "sha1": "4911df30ef316470ba74500905dc3f05f6f00b3d", "size": 33334896}, {"name": "Ryuuko no Ken (Japan) (En,Ja,Es) (FABT) (Track 13).bin", "sha1": "22409c32354157ed4e13cdbc3cb2faed9e0f5b50", "size": 886704}, {"name": "Ryuuko no Ken (Japan) (En,Ja,Es) (FABT) (Track 14).bin", "sha1": "b6d05d250a248d1f5b8aed9fefff9172e5fd9544", "size": 31443888}, {"name": "Ryuuko no Ken (Japan) (En,Ja,Es) (FABT) (Track 15).bin", "sha1": "074ea8c017f30d7a6b9bb42dbfd64cb06a8b1a43", "size": 1853376}, {"name": "Ryuuko no Ken (Japan) (En,Ja,Es) (FABT) (Track 16).bin", "sha1": "357e519760b80a5152699873af009f0e4d5e8b6f", "size": 3753792}, {"name": "Ryuuko no Ken (Japan) (En,Ja,Es) (FABT) (Track 17).bin", "sha1": "c12a65000f870efd6b31b4043118f44035fdd4e6", "size": 16527504}, {"name": "Ryuuko no Ken (Japan) (En,Ja,Es) (FABT) (Track 18).bin", "sha1": "4e0a11897d284a789aef73ae7ced011b3ca9ed8f", "size": 715008}, {"name": "Ryuuko no Ken (Japan) (En,Ja,Es) (FABT) (Track 19).bin", "sha1": "59d4e41604ef98824f2f1ec626b0b06c6da504c7", "size": 705600}, {"name": "Ryuuko no Ken (Japan) (En,Ja,Es) (FABT) (Track 20).bin", "sha1": "5afc4af147ab25fcd570264c06be91d1a328096e", "size": 705600}, {"name": "Ryuuko no Ken (Japan) (En,Ja,Es) (FABT) (Track 21).bin", "sha1": "6b361bfd01a9f12dcee1418b4cf01cace699be1b", "size": 1606416}, {"name": "Ryuuko no Ken (Japan) (En,Ja,Es) (FABT) (Track 22).bin", "sha1": "a7a03301494a83aff0a7b713b5e8e382e85cb685", "size": 31603824}, {"name": "Ryuuko no Ken (Japan) (En,Ja,Es) (FABT) (Track 23).bin", "sha1": "c8d24d130597513822b9c1c988387978007c4612", "size": 1803984}, {"name": "Ryuuko no Ken (Japan) (En,Ja,Es) (FABT) (Track 24).bin", "sha1": "067d27fc55226eabfdea97440317350bd9c95fd5", "size": 32062464}, {"name": "Ryuuko no Ken (Japan) (En,Ja,Es) (FABT) (Track 25).bin", "sha1": "c225f7436a022d5407502b78d0c052d858dd723e", "size": 1634640}, {"name": "Ryuuko no Ken (Japan) (En,Ja,Es) (FABT) (Track 26).bin", "sha1": "5d5cf44f919a619001981a6b96f1ddd7e551a460", "size": 31585008}, {"name": "Ryuuko no Ken (Japan) (En,Ja,Es) (FABT) (Track 27).bin", "sha1": "99b2ba0f05f97168a604358eec141d600974e95a", "size": 1274784}, {"name": "Ryuuko no Ken (Japan) (En,Ja,Es) (FABT) (Track 28).bin", "sha1": "ba78bdbfac8cc9fcf17271681d48030399ecfeee", "size": 6007008}, {"name": "Ryuuko no Ken (Japan) (En,Ja,Es) (FABT) (Track 29).bin", "sha1": "4bf89e82d4ff2d40a08857fcb8987d5c06150c2a", "size": 32057760}, {"name": "Ryuuko no Ken (Japan) (En,Ja,Es) (FABT) (Track 30).bin", "sha1": "56d9803041552791e87378735b1651d674428b4e", "size": 2050944}, {"name": "Ryuuko no Ken (Japan) (En,Ja,Es) (FABT) (Track 31).bin", "sha1": "883085ba28328a9b8f785c2b0cdfffcbbf1e18cf", "size": 9716112}, {"name": "Ryuuko no Ken (Japan) (En,Ja,Es) (FABT) (Track 32).bin", "sha1": "e8f5bb8c0690449f410bbc25d2cb0bd4ca56da72", "size": 2415504}]
        [Importer]
        languages
        en, es, ja
        [Importer]
        parent_uuid
        8de841c1-99b2-4f11-a04f-640c16192505
        [Importer]
        platform
        tgcd tgcd
        [Importer]
        tag_redump
        2019-04-30
        [Importer]
        variant_name
        CUE, Japan, FABT
        [Importer]
        x_name
        Ryuuko no Ken, CUE, Japan, FABT, Redump
        [Importer]
        _refresh
        5
        [Importer]
        _type
        2
        [Importer]
        __imported
        2017-09-18
        [Importer]

        Override the images from the main game entry. (It can be useful to upload language-specific screens, but don't use unless needed):

        front image
        __back image
        title image
        banner image
        screen1 image
        screen2 image
        screen3 image
        screen4 image
        screen5 image
        3e7baa3c-e5f6-5351-9e15-ddf30d5d156c

        CUE, Japan, FACT

        cue_sheets
        [{"data": "CATALOG 0000000000000\r\nFILE \"Ryuuko no Ken (Japan) (En,Ja,Es) (FACT) (Track 01).bin\" BINARY\r\nTRACK 01 AUDIO\r\nINDEX 01 00:00:00\r\nFILE \"Ryuuko no Ken (Japan) (En,Ja,Es) (FACT) (Track 02).bin\" BINARY\r\nTRACK 02 MODE1/2352\r\nINDEX 00 00:00:00\r\nINDEX 01 00:03:00\r\nFILE \"Ryuuko no Ken (Japan) (En,Ja,Es) (FACT) (Track 03).bin\" BINARY\r\nTRACK 03 AUDIO\r\nINDEX 00 00:00:00\r\nINDEX 01 00:03:00\r\nFILE \"Ryuuko no Ken (Japan) (En,Ja,Es) (FACT) (Track 04).bin\" BINARY\r\nTRACK 04 AUDIO\r\nINDEX 00 00:00:00\r\nINDEX 01 00:02:00\r\nFILE \"Ryuuko no Ken (Japan) (En,Ja,Es) (FACT) (Track 05).bin\" BINARY\r\nTRACK 05 AUDIO\r\nINDEX 00 00:00:00\r\nINDEX 01 00:02:00\r\nFILE \"Ryuuko no Ken (Japan) (En,Ja,Es) (FACT) (Track 06).bin\" BINARY\r\nTRACK 06 AUDIO\r\nINDEX 00 00:00:00\r\nINDEX 01 00:02:00\r\nFILE \"Ryuuko no Ken (Japan) (En,Ja,Es) (FACT) (Track 07).bin\" BINARY\r\nTRACK 07 AUDIO\r\nINDEX 00 00:00:00\r\nINDEX 01 00:02:00\r\nFILE \"Ryuuko no Ken (Japan) (En,Ja,Es) (FACT) (Track 08).bin\" BINARY\r\nTRACK 08 AUDIO\r\nINDEX 00 00:00:00\r\nINDEX 01 00:02:00\r\nFILE \"Ryuuko no Ken (Japan) (En,Ja,Es) (FACT) (Track 09).bin\" BINARY\r\nTRACK 09 AUDIO\r\nINDEX 00 00:00:00\r\nINDEX 01 00:02:00\r\nFILE \"Ryuuko no Ken (Japan) (En,Ja,Es) (FACT) (Track 10).bin\" BINARY\r\nTRACK 10 AUDIO\r\nINDEX 00 00:00:00\r\nINDEX 01 00:02:00\r\nFILE \"Ryuuko no Ken (Japan) (En,Ja,Es) (FACT) (Track 11).bin\" BINARY\r\nTRACK 11 AUDIO\r\nINDEX 00 00:00:00\r\nINDEX 01 00:02:00\r\nFILE \"Ryuuko no Ken (Japan) (En,Ja,Es) (FACT) (Track 12).bin\" BINARY\r\nTRACK 12 AUDIO\r\nINDEX 00 00:00:00\r\nINDEX 01 00:02:00\r\nFILE \"Ryuuko no Ken (Japan) (En,Ja,Es) (FACT) (Track 13).bin\" BINARY\r\nTRACK 13 AUDIO\r\nINDEX 00 00:00:00\r\nINDEX 01 00:02:00\r\nFILE \"Ryuuko no Ken (Japan) (En,Ja,Es) (FACT) (Track 14).bin\" BINARY\r\nTRACK 14 AUDIO\r\nINDEX 00 00:00:00\r\nINDEX 01 00:02:00\r\nFILE \"Ryuuko no Ken (Japan) (En,Ja,Es) (FACT) (Track 15).bin\" BINARY\r\nTRACK 15 AUDIO\r\nINDEX 00 00:00:00\r\nINDEX 01 00:02:00\r\nFILE \"Ryuuko no Ken (Japan) (En,Ja,Es) (FACT) (Track 16).bin\" BINARY\r\nTRACK 16 AUDIO\r\nINDEX 00 00:00:00\r\nINDEX 01 00:02:00\r\nFILE \"Ryuuko no Ken (Japan) (En,Ja,Es) (FACT) (Track 17).bin\" BINARY\r\nTRACK 17 AUDIO\r\nINDEX 00 00:00:00\r\nINDEX 01 00:02:00\r\nFILE \"Ryuuko no Ken (Japan) (En,Ja,Es) (FACT) (Track 18).bin\" BINARY\r\nTRACK 18 AUDIO\r\nINDEX 00 00:00:00\r\nINDEX 01 00:02:00\r\nFILE \"Ryuuko no Ken (Japan) (En,Ja,Es) (FACT) (Track 19).bin\" BINARY\r\nTRACK 19 AUDIO\r\nINDEX 00 00:00:00\r\nINDEX 01 00:02:00\r\nFILE \"Ryuuko no Ken (Japan) (En,Ja,Es) (FACT) (Track 20).bin\" BINARY\r\nTRACK 20 AUDIO\r\nINDEX 00 00:00:00\r\nINDEX 01 00:02:00\r\nFILE \"Ryuuko no Ken (Japan) (En,Ja,Es) (FACT) (Track 21).bin\" BINARY\r\nTRACK 21 AUDIO\r\nINDEX 00 00:00:00\r\nINDEX 01 00:02:00\r\nFILE \"Ryuuko no Ken (Japan) (En,Ja,Es) (FACT) (Track 22).bin\" BINARY\r\nTRACK 22 AUDIO\r\nINDEX 00 00:00:00\r\nINDEX 01 00:02:00\r\nFILE \"Ryuuko no Ken (Japan) (En,Ja,Es) (FACT) (Track 23).bin\" BINARY\r\nTRACK 23 AUDIO\r\nINDEX 00 00:00:00\r\nINDEX 01 00:02:00\r\nFILE \"Ryuuko no Ken (Japan) (En,Ja,Es) (FACT) (Track 24).bin\" BINARY\r\nTRACK 24 AUDIO\r\nINDEX 00 00:00:00\r\nINDEX 01 00:02:00\r\nFILE \"Ryuuko no Ken (Japan) (En,Ja,Es) (FACT) (Track 25).bin\" BINARY\r\nTRACK 25 AUDIO\r\nINDEX 00 00:00:00\r\nINDEX 01 00:02:00\r\nFILE \"Ryuuko no Ken (Japan) (En,Ja,Es) (FACT) (Track 26).bin\" BINARY\r\nTRACK 26 AUDIO\r\nINDEX 00 00:00:00\r\nINDEX 01 00:02:00\r\nFILE \"Ryuuko no Ken (Japan) (En,Ja,Es) (FACT) (Track 27).bin\" BINARY\r\nTRACK 27 AUDIO\r\nINDEX 00 00:00:00\r\nINDEX 01 00:02:00\r\nFILE \"Ryuuko no Ken (Japan) (En,Ja,Es) (FACT) (Track 28).bin\" BINARY\r\nTRACK 28 AUDIO\r\nINDEX 00 00:00:00\r\nINDEX 01 00:02:00\r\nFILE \"Ryuuko no Ken (Japan) (En,Ja,Es) (FACT) (Track 29).bin\" BINARY\r\nTRACK 29 AUDIO\r\nINDEX 00 00:00:00\r\nINDEX 01 00:02:00\r\nFILE \"Ryuuko no Ken (Japan) (En,Ja,Es) (FACT) (Track 30).bin\" BINARY\r\nTRACK 30 AUDIO\r\nINDEX 00 00:00:00\r\nINDEX 01 00:02:00\r\nFILE \"Ryuuko no Ken (Japan) (En,Ja,Es) (FACT) (Track 31).bin\" BINARY\r\nTRACK 31 AUDIO\r\nINDEX 00 00:00:00\r\nINDEX 01 00:02:00\r\nFILE \"Ryuuko no Ken (Japan) (En,Ja,Es) (FACT) (Track 32).bin\" BINARY\r\nTRACK 32 AUDIO\r\nINDEX 00 00:00:00\r\nINDEX 01 00:02:00", "name": "Ryuuko no Ken (Japan) (En,Ja,Es) (FACT).cue"}]
        [Importer]
        file_list
        [{"name": "Ryuuko no Ken (Japan) (En,Ja,Es) (FACT) (Track 01).bin", "sha1": "2174a2a24da92a7c83aed9e9603ac75a026f509d", "size": 7914480}, {"name": "Ryuuko no Ken (Japan) (En,Ja,Es) (FACT) (Track 02).bin", "sha1": "4e78b06d56280f9a63073086ff834845153d75e4", "size": 135583392}, {"name": "Ryuuko no Ken (Japan) (En,Ja,Es) (FACT) (Track 03).bin", "sha1": "5b3ca6eeabd42cbb2cac37416443298284fceeab", "size": 6703200}, {"name": "Ryuuko no Ken (Japan) (En,Ja,Es) (FACT) (Track 04).bin", "sha1": "8bdb3591ee4ef9f43b3d851177358b1fde25f525", "size": 705600}, {"name": "Ryuuko no Ken (Japan) (En,Ja,Es) (FACT) (Track 05).bin", "sha1": "f0afa6840655cfdebdad7ec75496be9103f5f46d", "size": 16329936}, {"name": "Ryuuko no Ken (Japan) (En,Ja,Es) (FACT) (Track 06).bin", "sha1": "d9e2ac48d72ca437f0e906bfd132d11b06dc4338", "size": 2133264}, {"name": "Ryuuko no Ken (Japan) (En,Ja,Es) (FACT) (Track 07).bin", "sha1": "e64c5359fd542c1e5878fc73c0116bcc88fd288b", "size": 32490528}, {"name": "Ryuuko no Ken (Japan) (En,Ja,Es) (FACT) (Track 08).bin", "sha1": "f9c2d6c2c1280c5e013ca56a34240e2e23a47a6c", "size": 1996848}, {"name": "Ryuuko no Ken (Japan) (En,Ja,Es) (FACT) (Track 09).bin", "sha1": "71973fed69c22b7fefd27b9498288d8aa20254c7", "size": 5498976}, {"name": "Ryuuko no Ken (Japan) (En,Ja,Es) (FACT) (Track 10).bin", "sha1": "226e342f3abc669eae2e181e1b589c2966476666", "size": 31516800}, {"name": "Ryuuko no Ken (Japan) (En,Ja,Es) (FACT) (Track 11).bin", "sha1": "ba241a7d2053da256d6c224399b534174e9aed94", "size": 1408848}, {"name": "Ryuuko no Ken (Japan) (En,Ja,Es) (FACT) (Track 12).bin", "sha1": "578cc736e2bad67174225f2659939cc60a4a8914", "size": 33334896}, {"name": "Ryuuko no Ken (Japan) (En,Ja,Es) (FACT) (Track 13).bin", "sha1": "22409c32354157ed4e13cdbc3cb2faed9e0f5b50", "size": 886704}, {"name": "Ryuuko no Ken (Japan) (En,Ja,Es) (FACT) (Track 14).bin", "sha1": "4765020fa9fe142752290af1eeac6df3dc13ca7c", "size": 31443888}, {"name": "Ryuuko no Ken (Japan) (En,Ja,Es) (FACT) (Track 15).bin", "sha1": "074ea8c017f30d7a6b9bb42dbfd64cb06a8b1a43", "size": 1853376}, {"name": "Ryuuko no Ken (Japan) (En,Ja,Es) (FACT) (Track 16).bin", "sha1": "abe899c949930f41e7a07ebf0259a12334acbce6", "size": 3753792}, {"name": "Ryuuko no Ken (Japan) (En,Ja,Es) (FACT) (Track 17).bin", "sha1": "524a28c54d1fbaa9b0552e4fc3961216c6d6b4df", "size": 16527504}, {"name": "Ryuuko no Ken (Japan) (En,Ja,Es) (FACT) (Track 18).bin", "sha1": "f1787455bbd44616d20a917bc02a59d2464f40ab", "size": 715008}, {"name": "Ryuuko no Ken (Japan) (En,Ja,Es) (FACT) (Track 19).bin", "sha1": "c08c56f62931eb28f84401940738e730c961b83b", "size": 705600}, {"name": "Ryuuko no Ken (Japan) (En,Ja,Es) (FACT) (Track 20).bin", "sha1": "34409883e5913dd15f95736c21387e27d4630a60", "size": 705600}, {"name": "Ryuuko no Ken (Japan) (En,Ja,Es) (FACT) (Track 21).bin", "sha1": "e565e66356393d33b6a3fba31e22090a3e629554", "size": 1606416}, {"name": "Ryuuko no Ken (Japan) (En,Ja,Es) (FACT) (Track 22).bin", "sha1": "0cba0af1d869fe1fd388a482e1a86e51d734cc80", "size": 31603824}, {"name": "Ryuuko no Ken (Japan) (En,Ja,Es) (FACT) (Track 23).bin", "sha1": "922baecac6f0082ec9812285fcf62bae91efa1ad", "size": 1803984}, {"name": "Ryuuko no Ken (Japan) (En,Ja,Es) (FACT) (Track 24).bin", "sha1": "067d27fc55226eabfdea97440317350bd9c95fd5", "size": 32062464}, {"name": "Ryuuko no Ken (Japan) (En,Ja,Es) (FACT) (Track 25).bin", "sha1": "c225f7436a022d5407502b78d0c052d858dd723e", "size": 1634640}, {"name": "Ryuuko no Ken (Japan) (En,Ja,Es) (FACT) (Track 26).bin", "sha1": "43ef18521020ac181ec9390d3daf2a17b1effb98", "size": 31585008}, {"name": "Ryuuko no Ken (Japan) (En,Ja,Es) (FACT) (Track 27).bin", "sha1": "99b2ba0f05f97168a604358eec141d600974e95a", "size": 1274784}, {"name": "Ryuuko no Ken (Japan) (En,Ja,Es) (FACT) (Track 28).bin", "sha1": "b80d02a32c4da7d879498e9a02ef386c942d4e29", "size": 6007008}, {"name": "Ryuuko no Ken (Japan) (En,Ja,Es) (FACT) (Track 29).bin", "sha1": "4bf89e82d4ff2d40a08857fcb8987d5c06150c2a", "size": 32057760}, {"name": "Ryuuko no Ken (Japan) (En,Ja,Es) (FACT) (Track 30).bin", "sha1": "c18d0c0c7c8fa75b01ae5d7101f4d57fb6ecf7ff", "size": 2050944}, {"name": "Ryuuko no Ken (Japan) (En,Ja,Es) (FACT) (Track 31).bin", "sha1": "d2519b4a62ae580d064a60b86b83ac56efe0fbd4", "size": 9716112}, {"name": "Ryuuko no Ken (Japan) (En,Ja,Es) (FACT) (Track 32).bin", "sha1": "e8f5bb8c0690449f410bbc25d2cb0bd4ca56da72", "size": 2415504}]
        [Importer]
        languages
        en, es, ja
        [Importer]
        parent_uuid
        8de841c1-99b2-4f11-a04f-640c16192505
        [Importer]
        platform
        tgcd tgcd
        [Importer]
        tag_redump
        2019-04-30
        [Importer]
        variant_name
        CUE, Japan, FACT
        [Importer]
        x_name
        Ryuuko no Ken, CUE, Japan, FACT, Redump
        [Importer]
        _type
        2
        [Importer]

        Override the images from the main game entry. (It can be useful to upload language-specific screens, but don't use unless needed):

        front image
        __back image
        title image
        banner image
        screen1 image
        screen2 image
        screen3 image
        screen4 image
        screen5 image
        3acfa34b-f17c-53c8-a826-3c75de523f73

        CUE, Japan, Sample

        cue_sheets
        [{"data": "FILE \"Ryuuko no Ken (Japan) (En,Ja,Es) (Sample) (Track 01).bin\" BINARY\r\nTRACK 01 AUDIO\r\nINDEX 01 00:00:00\r\nFILE \"Ryuuko no Ken (Japan) (En,Ja,Es) (Sample) (Track 02).bin\" BINARY\r\nTRACK 02 MODE1/2352\r\nINDEX 00 00:00:00\r\nINDEX 01 00:03:00\r\nFILE \"Ryuuko no Ken (Japan) (En,Ja,Es) (Sample) (Track 03).bin\" BINARY\r\nTRACK 03 AUDIO\r\nINDEX 00 00:00:00\r\nINDEX 01 00:02:00\r\nFILE \"Ryuuko no Ken (Japan) (En,Ja,Es) (Sample) (Track 04).bin\" BINARY\r\nTRACK 04 AUDIO\r\nINDEX 01 00:00:00\r\nFILE \"Ryuuko no Ken (Japan) (En,Ja,Es) (Sample) (Track 05).bin\" BINARY\r\nTRACK 05 AUDIO\r\nINDEX 01 00:00:00\r\nFILE \"Ryuuko no Ken (Japan) (En,Ja,Es) (Sample) (Track 06).bin\" BINARY\r\nTRACK 06 AUDIO\r\nINDEX 01 00:00:00\r\nFILE \"Ryuuko no Ken (Japan) (En,Ja,Es) (Sample) (Track 07).bin\" BINARY\r\nTRACK 07 AUDIO\r\nINDEX 01 00:00:00\r\nFILE \"Ryuuko no Ken (Japan) (En,Ja,Es) (Sample) (Track 08).bin\" BINARY\r\nTRACK 08 AUDIO\r\nINDEX 01 00:00:00\r\nFILE \"Ryuuko no Ken (Japan) (En,Ja,Es) (Sample) (Track 09).bin\" BINARY\r\nTRACK 09 AUDIO\r\nINDEX 01 00:00:00\r\nFILE \"Ryuuko no Ken (Japan) (En,Ja,Es) (Sample) (Track 10).bin\" BINARY\r\nTRACK 10 AUDIO\r\nINDEX 01 00:00:00\r\nFILE \"Ryuuko no Ken (Japan) (En,Ja,Es) (Sample) (Track 11).bin\" BINARY\r\nTRACK 11 AUDIO\r\nINDEX 01 00:00:00\r\nFILE \"Ryuuko no Ken (Japan) (En,Ja,Es) (Sample) (Track 12).bin\" BINARY\r\nTRACK 12 AUDIO\r\nINDEX 01 00:00:00\r\nFILE \"Ryuuko no Ken (Japan) (En,Ja,Es) (Sample) (Track 13).bin\" BINARY\r\nTRACK 13 AUDIO\r\nINDEX 01 00:00:00\r\nFILE \"Ryuuko no Ken (Japan) (En,Ja,Es) (Sample) (Track 14).bin\" BINARY\r\nTRACK 14 AUDIO\r\nINDEX 01 00:00:00\r\nFILE \"Ryuuko no Ken (Japan) (En,Ja,Es) (Sample) (Track 15).bin\" BINARY\r\nTRACK 15 AUDIO\r\nINDEX 01 00:00:00\r\nFILE \"Ryuuko no Ken (Japan) (En,Ja,Es) (Sample) (Track 16).bin\" BINARY\r\nTRACK 16 AUDIO\r\nINDEX 01 00:00:00\r\nFILE \"Ryuuko no Ken (Japan) (En,Ja,Es) (Sample) (Track 17).bin\" BINARY\r\nTRACK 17 AUDIO\r\nINDEX 01 00:00:00\r\nFILE \"Ryuuko no Ken (Japan) (En,Ja,Es) (Sample) (Track 18).bin\" BINARY\r\nTRACK 18 AUDIO\r\nINDEX 01 00:00:00\r\nFILE \"Ryuuko no Ken (Japan) (En,Ja,Es) (Sample) (Track 19).bin\" BINARY\r\nTRACK 19 AUDIO\r\nINDEX 01 00:00:00\r\nFILE \"Ryuuko no Ken (Japan) (En,Ja,Es) (Sample) (Track 20).bin\" BINARY\r\nTRACK 20 AUDIO\r\nINDEX 01 00:00:00\r\nFILE \"Ryuuko no Ken (Japan) (En,Ja,Es) (Sample) (Track 21).bin\" BINARY\r\nTRACK 21 AUDIO\r\nINDEX 01 00:00:00\r\nFILE \"Ryuuko no Ken (Japan) (En,Ja,Es) (Sample) (Track 22).bin\" BINARY\r\nTRACK 22 AUDIO\r\nINDEX 01 00:00:00\r\nFILE \"Ryuuko no Ken (Japan) (En,Ja,Es) (Sample) (Track 23).bin\" BINARY\r\nTRACK 23 AUDIO\r\nINDEX 01 00:00:00\r\nFILE \"Ryuuko no Ken (Japan) (En,Ja,Es) (Sample) (Track 24).bin\" BINARY\r\nTRACK 24 AUDIO\r\nINDEX 01 00:00:00\r\nFILE \"Ryuuko no Ken (Japan) (En,Ja,Es) (Sample) (Track 25).bin\" BINARY\r\nTRACK 25 AUDIO\r\nINDEX 01 00:00:00\r\nFILE \"Ryuuko no Ken (Japan) (En,Ja,Es) (Sample) (Track 26).bin\" BINARY\r\nTRACK 26 AUDIO\r\nINDEX 01 00:00:00\r\nFILE \"Ryuuko no Ken (Japan) (En,Ja,Es) (Sample) (Track 27).bin\" BINARY\r\nTRACK 27 AUDIO\r\nINDEX 01 00:00:00\r\nFILE \"Ryuuko no Ken (Japan) (En,Ja,Es) (Sample) (Track 28).bin\" BINARY\r\nTRACK 28 AUDIO\r\nINDEX 01 00:00:00\r\nFILE \"Ryuuko no Ken (Japan) (En,Ja,Es) (Sample) (Track 29).bin\" BINARY\r\nTRACK 29 AUDIO\r\nINDEX 01 00:00:00\r\nFILE \"Ryuuko no Ken (Japan) (En,Ja,Es) (Sample) (Track 30).bin\" BINARY\r\nTRACK 30 AUDIO\r\nINDEX 01 00:00:00\r\nFILE \"Ryuuko no Ken (Japan) (En,Ja,Es) (Sample) (Track 31).bin\" BINARY\r\nTRACK 31 AUDIO\r\nINDEX 01 00:00:00\r\nFILE \"Ryuuko no Ken (Japan) (En,Ja,Es) (Sample) (Track 32).bin\" BINARY\r\nTRACK 32 AUDIO\r\nINDEX 01 00:00:00", "name": "Ryuuko no Ken (Japan) (En,Ja,Es) (Sample).cue"}]
        [Importer]
        file_list
        [{"name": "Ryuuko no Ken (Japan) (En,Ja,Es) (Sample) (Track 01).bin", "sha1": "9ac3f1a11d434d186466917f1c7955bf7670c910", "size": 7914480}, {"name": "Ryuuko no Ken (Japan) (En,Ja,Es) (Sample) (Track 02).bin", "sha1": "cdabd6a953c49854d5232ad12b7c1e32ba37a62b", "size": 135759792}, {"name": "Ryuuko no Ken (Japan) (En,Ja,Es) (Sample) (Track 03).bin", "sha1": "2f44e16dddb72ec28641882cbd40bae854007fa5", "size": 6879600}, {"name": "Ryuuko no Ken (Japan) (En,Ja,Es) (Sample) (Track 04).bin", "sha1": "f9f00f268a7c145fef92fa1d06a6905e7a5ca73b", "size": 705600}, {"name": "Ryuuko no Ken (Japan) (En,Ja,Es) (Sample) (Track 05).bin", "sha1": "1d39d454dd415b55a42483bf38bcd6ce2e1cfe3d", "size": 16329936}, {"name": "Ryuuko no Ken (Japan) (En,Ja,Es) (Sample) (Track 06).bin", "sha1": "879812746798952829b29b2a3691f85523f11957", "size": 2133264}, {"name": "Ryuuko no Ken (Japan) (En,Ja,Es) (Sample) (Track 07).bin", "sha1": "4e5cc638495f1c48fb7d8df36e018ca1c82abdea", "size": 32490528}, {"name": "Ryuuko no Ken (Japan) (En,Ja,Es) (Sample) (Track 08).bin", "sha1": "427e347ec3941b872865262044460e13d502795c", "size": 1996848}, {"name": "Ryuuko no Ken (Japan) (En,Ja,Es) (Sample) (Track 09).bin", "sha1": "3dd0646bc9410dcb8786861252d8ffc0bb32a0b2", "size": 5498976}, {"name": "Ryuuko no Ken (Japan) (En,Ja,Es) (Sample) (Track 10).bin", "sha1": "f99e3baacbb5c6bdd57cd76ef02b68b0347dd107", "size": 31516800}, {"name": "Ryuuko no Ken (Japan) (En,Ja,Es) (Sample) (Track 11).bin", "sha1": "2ffc37cf15fcb05a7f63f8197121092ab35bee29", "size": 1408848}, {"name": "Ryuuko no Ken (Japan) (En,Ja,Es) (Sample) (Track 12).bin", "sha1": "ea7f2066941b75b7d972c0e5d9170e723465c050", "size": 33334896}, {"name": "Ryuuko no Ken (Japan) (En,Ja,Es) (Sample) (Track 13).bin", "sha1": "b981f04c12edf872b5a99e5ea2ed0b4cbacb74c0", "size": 886704}, {"name": "Ryuuko no Ken (Japan) (En,Ja,Es) (Sample) (Track 14).bin", "sha1": "dd31dfd0d8032b756c177dd08747e921f9b09204", "size": 31443888}, {"name": "Ryuuko no Ken (Japan) (En,Ja,Es) (Sample) (Track 15).bin", "sha1": "c9ae54f27fd6a2621abec25918c18526717c7f5c", "size": 1853376}, {"name": "Ryuuko no Ken (Japan) (En,Ja,Es) (Sample) (Track 16).bin", "sha1": "f2ff69f305226d0b9501ce17ee795d156b67df49", "size": 3753792}, {"name": "Ryuuko no Ken (Japan) (En,Ja,Es) (Sample) (Track 17).bin", "sha1": "87f85fd40f98e41d72753477a0ef234af5995ae5", "size": 16527504}, {"name": "Ryuuko no Ken (Japan) (En,Ja,Es) (Sample) (Track 18).bin", "sha1": "4d26fab1dd0b68f4e2332aba838dd7288c06f611", "size": 715008}, {"name": "Ryuuko no Ken (Japan) (En,Ja,Es) (Sample) (Track 19).bin", "sha1": "af3f64802154e2225daa10aa105e73c3d0b6f731", "size": 705600}, {"name": "Ryuuko no Ken (Japan) (En,Ja,Es) (Sample) (Track 20).bin", "sha1": "a33400121e960e74614c8729230b36a4a2c6297b", "size": 705600}, {"name": "Ryuuko no Ken (Japan) (En,Ja,Es) (Sample) (Track 21).bin", "sha1": "31f2c9c2ffbf4d645071e3a31e455b5294a5664f", "size": 1606416}, {"name": "Ryuuko no Ken (Japan) (En,Ja,Es) (Sample) (Track 22).bin", "sha1": "bca396ab13aaebb339b6dbbd4f2066c5aa23e37c", "size": 31603824}, {"name": "Ryuuko no Ken (Japan) (En,Ja,Es) (Sample) (Track 23).bin", "sha1": "b34d54f88a1e20027cf350d7aab5d58c3e666b8c", "size": 1803984}, {"name": "Ryuuko no Ken (Japan) (En,Ja,Es) (Sample) (Track 24).bin", "sha1": "fc0c82a0f1a06db008e4b44ed0afa87bcb5af861", "size": 32062464}, {"name": "Ryuuko no Ken (Japan) (En,Ja,Es) (Sample) (Track 25).bin", "sha1": "d834da8d32128e008a39ecf84deea04ea4955bbd", "size": 1634640}, {"name": "Ryuuko no Ken (Japan) (En,Ja,Es) (Sample) (Track 26).bin", "sha1": "a00379d0053aec11f5763800349dc4913d8c4269", "size": 31585008}, {"name": "Ryuuko no Ken (Japan) (En,Ja,Es) (Sample) (Track 27).bin", "sha1": "e1da6d719c547b9d24eb978f60a727e29535d510", "size": 1274784}, {"name": "Ryuuko no Ken (Japan) (En,Ja,Es) (Sample) (Track 28).bin", "sha1": "650f2d0eaf2deeeccf9cfdff678c853939d04002", "size": 6007008}, {"name": "Ryuuko no Ken (Japan) (En,Ja,Es) (Sample) (Track 29).bin", "sha1": "32212023bb517f2de641016be438bd548622cf9b", "size": 32057760}, {"name": "Ryuuko no Ken (Japan) (En,Ja,Es) (Sample) (Track 30).bin", "sha1": "3ab6d1c07914699e06bac94593fb406f9f992dfa", "size": 2050944}, {"name": "Ryuuko no Ken (Japan) (En,Ja,Es) (Sample) (Track 31).bin", "sha1": "665af0941196cb60eff11b7a708443b13421b6a6", "size": 9716112}, {"name": "Ryuuko no Ken (Japan) (En,Ja,Es) (Sample) (Track 32).bin", "sha1": "25106d722c0927829b5ca177536ce439c2586df8", "size": 2062704}]
        [Importer]
        languages
        en, es, ja
        [Importer]
        parent_uuid
        8de841c1-99b2-4f11-a04f-640c16192505
        [Importer]
        platform
        tgcd tgcd
        [Importer]
        tag_redump
        2019-04-30
        [Importer]
        variant_name
        CUE, Japan, Sample
        [Importer]
        x_name
        Ryuuko no Ken, CUE, Japan, Sample, Redump
        [Importer]
        _type
        2
        [Importer]

        Override the images from the main game entry. (It can be useful to upload language-specific screens, but don't use unless needed):

        front image
        __back image
        title image
        banner image
        screen1 image
        screen2 image
        screen3 image
        screen4 image
        screen5 image