Navigation:

Dave Mirra Freestyle BMX - Maximum Remix PlayStation

Game

Variants

Unpublished Variants

    Disabled Variants

      Merged Game Entries

        front image

        Click on an image to upload and/or replace an image.

        __back image
        banner image

        Your changes must be accepted by a moderator before they are fully visible. Until then, your changes will be shown with orange color.

        title image
        screen1 image
        screen2 image
        screen3 image
        screen4 image
        screen5 image
        8b484509-2fd0-46ec-9ecb-e1ed3456154d

        Dave Mirra Freestyle BMX - Maximum Remix

        developer
        Z-Axis
        thevoice
        front_sha1 thevoice
        game_name
        Dave Mirra Freestyle BMX - Maximum Remix
        [Importer]
        longplay_url thevoice
        mobygames_url thevoice
        platform
        psx
        [Importer]
        players
        1 - 2 (1)
        thevoice
        publish
        1
        thevoice
        publisher
        Acclaim Entertainment
        thevoice
        screen1_sha1 thevoice
        screen2_sha1 thevoice
        screen3_sha1 thevoice
        screen4_sha1 thevoice
        screen5_sha1 thevoice
        tags thevoice
        title_sha1 thevoice
        wikipedia_url thevoice
        year
        2001
        thevoice
        _type
        1
        [Importer]
        __back_sha1 thevoice
        b802aeef-9092-55a0-90e1-260f8827f41f

        CUE, Europe

        cue_sheets
        [{"data": "FILE \"Dave Mirra Freestyle BMX - Maximum Remix (Europe) (Track 1).bin\" BINARY\r\nTRACK 01 MODE2/2352\r\nINDEX 01 00:00:00\r\nFILE \"Dave Mirra Freestyle BMX - Maximum Remix (Europe) (Track 2).bin\" BINARY\r\nTRACK 02 AUDIO\r\nINDEX 00 00:00:00\r\nINDEX 01 00:02:00", "name": "Dave Mirra Freestyle BMX - Maximum Remix (Europe).cue"}]
        [Importer]
        file_list
        [{"name": "Dave Mirra Freestyle BMX - Maximum Remix (Europe) (Track 1).bin", "sha1": "47894f1ae34626c9d9bcc22a712af5660e4d7cfb", "size": 299132064}, {"name": "Dave Mirra Freestyle BMX - Maximum Remix (Europe) (Track 2).bin", "sha1": "bea344b803475b463195df6fd60834069afe246e", "size": 32163600}]
        [Importer]
        front_sha1 thevoice
        languages
        en
        thevoice
        parent_uuid
        8b484509-2fd0-46ec-9ecb-e1ed3456154d
        [Importer]
        platform
        psx psx
        [Importer]
        psx_model
        pal
        [Importer]
        sbi_data
        [Importer]
        tag_redump
        2019-04-28
        [Importer]
        title_sha1 thevoice
        variant_name
        CUE, Europe
        [Importer]
        x_name
        Dave Mirra Freestyle BMX - Maximum Remix, CUE, Europe, Redump
        [Importer]
        _type
        2
        [Importer]
        __back_sha1 thevoice
        __imported
        2018-01-30
        [Importer]

        Override the images from the main game entry. (It can be useful to upload language-specific screens, but don't use unless needed):

        front image
        __back image
        title image
        banner image
        screen1 image
        screen2 image
        screen3 image
        screen4 image
        screen5 image
        bc955b69-20ee-5941-8de6-c607b33d00fd

        CUE, USA

        cue_sheets
        [{"data": "FILE \"Dave Mirra Freestyle BMX - Maximum Remix (USA) (Track 1).bin\" BINARY\r\nTRACK 01 MODE2/2352\r\nINDEX 01 00:00:00\r\nFILE \"Dave Mirra Freestyle BMX - Maximum Remix (USA) (Track 2).bin\" BINARY\r\nTRACK 02 AUDIO\r\nINDEX 00 00:00:00\r\nINDEX 01 00:02:00", "name": "Dave Mirra Freestyle BMX - Maximum Remix (USA).cue"}]
        [Importer]
        file_list
        [{"name": "Dave Mirra Freestyle BMX - Maximum Remix (USA) (Track 1).bin", "sha1": "767ea0cefb8e486ead9f277290dfc336574f9bfb", "size": 299734176}, {"name": "Dave Mirra Freestyle BMX - Maximum Remix (USA) (Track 2).bin", "sha1": "e0d19c9171c39ec9a0119d326ca4c9d96df3d4eb", "size": 32163600}]
        [Importer]
        languages
        en
        thevoice
        parent_uuid
        8b484509-2fd0-46ec-9ecb-e1ed3456154d
        [Importer]
        platform
        psx psx
        [Importer]
        psx_model
        ntsc
        [Importer]
        sbi_data
        [Importer]
        tag_redump
        2019-04-28
        [Importer]
        variant_name
        CUE, USA
        [Importer]
        x_name
        Dave Mirra Freestyle BMX - Maximum Remix, CUE, USA, Redump
        [Importer]
        _type
        2
        [Importer]
        __imported
        2018-01-30
        [Importer]

        Override the images from the main game entry. (It can be useful to upload language-specific screens, but don't use unless needed):

        front image
        __back image
        title image
        banner image
        screen1 image
        screen2 image
        screen3 image
        screen4 image
        screen5 image