Navigation:

David Beckham Soccer PlayStation

Game

Variants

Unpublished Variants

    Disabled Variants

      Merged Game Entries

        front image

        Click on an image to upload and/or replace an image.

        __back image
        banner image

        Your changes must be accepted by a moderator before they are fully visible. Until then, your changes will be shown with orange color.

        title image
        screen1 image
        screen2 image
        screen3 image
        screen4 image
        screen5 image
        8a9c8474-50a4-43e7-9a3a-c3a3a6e482ac

        David Beckham Soccer

        developer
        Rage Software
        thevoice
        front_sha1 thevoice
        game_name
        David Beckham Soccer
        [Importer]
        longplay_url thevoice
        mobygames_url thevoice
        platform
        psx
        [Importer]
        players
        1 - 2 (2)
        thevoice
        publish
        1
        thevoice
        publisher
        Majesco
        thevoice
        screen1_sha1 thevoice
        screen2_sha1 thevoice
        screen3_sha1 thevoice
        screen4_sha1 thevoice
        screen5_sha1 thevoice
        tags thevoice
        title_sha1 thevoice
        wikipedia_url thevoice
        year
        2002
        thevoice
        _type
        1
        [Importer]
        __back_sha1 thevoice
        224cad5d-49cc-5dd7-8224-c37927c898a2

        CUE, Europe

        cue_sheets
        [{"data": "FILE \"David Beckham Soccer (Europe).bin\" BINARY\r\nTRACK 01 MODE2/2352\r\nINDEX 01 00:00:00", "name": "David Beckham Soccer (Europe).cue"}]
        [Importer]
        file_list
        [{"name": "David Beckham Soccer (Europe).bin", "sha1": "2b9ff205dc10de88a0a4516d613db9d80b7c0f9b", "size": 265362048}]
        [Importer]
        front_sha1 thevoice
        languages
        en
        thevoice
        parent_uuid
        8a9c8474-50a4-43e7-9a3a-c3a3a6e482ac
        [Importer]
        platform
        psx psx
        [Importer]
        psx_model
        pal
        [Importer]
        sbi_data
        [Importer]
        tag_redump
        2019-04-28
        [Importer]
        title_sha1 thevoice
        variant_name
        CUE, Europe
        [Importer]
        x_name
        David Beckham Soccer, CUE, Europe, Redump
        [Importer]
        _type
        2
        [Importer]
        __back_sha1 thevoice
        __imported
        2018-01-30
        [Importer]

        Override the images from the main game entry. (It can be useful to upload language-specific screens, but don't use unless needed):

        front image
        __back image
        title image
        banner image
        screen1 image
        screen2 image
        screen3 image
        screen4 image
        screen5 image
        b7631193-3281-5b9c-a8ef-078815ef235a

        CUE, Europe

        cue_sheets
        [{"data": "FILE \"David Beckham Soccer (Europe) (Fr,De,Es,It).bin\" BINARY\r\nTRACK 01 MODE2/2352\r\nINDEX 01 00:00:00", "name": "David Beckham Soccer (Europe) (Fr,De,Es,It).cue"}]
        [Importer]
        file_list
        [{"name": "David Beckham Soccer (Europe) (Fr,De,Es,It).bin", "sha1": "cd50bebdd1780b1c5e3d150e2b98389a422a375a", "size": 550243344}]
        [Importer]
        front_sha1 thevoice
        languages
        de, es, fr, it
        [Importer]
        parent_uuid
        8a9c8474-50a4-43e7-9a3a-c3a3a6e482ac
        [Importer]
        platform
        psx psx
        [Importer]
        psx_model
        pal
        [Importer]
        sbi_data
        [Importer]
        tag_redump
        2019-04-28
        [Importer]
        title_sha1 thevoice
        variant_name
        CUE, Europe
        [Importer]
        x_name
        David Beckham Soccer, CUE, Europe, Redump
        [Importer]
        _type
        2
        [Importer]
        __back_sha1 thevoice
        __imported
        2018-01-30
        [Importer]

        Override the images from the main game entry. (It can be useful to upload language-specific screens, but don't use unless needed):

        front image
        __back image
        title image
        banner image
        screen1 image
        screen2 image
        screen3 image
        screen4 image
        screen5 image
        9e6866ef-3d4f-5e50-8fef-1cb3b63e6749

        CUE, USA

        cue_sheets
        [{"data": "FILE \"David Beckham Soccer (USA).bin\" BINARY\r\nTRACK 01 MODE2/2352\r\nINDEX 01 00:00:00", "name": "David Beckham Soccer (USA).cue"}]
        [Importer]
        file_list
        [{"name": "David Beckham Soccer (USA).bin", "sha1": "4c521f7c38d17848268aac655ed712250375e835", "size": 265359696}]
        [Importer]
        languages
        en
        thevoice
        parent_uuid
        8a9c8474-50a4-43e7-9a3a-c3a3a6e482ac
        [Importer]
        platform
        psx psx
        [Importer]
        psx_model
        ntsc
        [Importer]
        sbi_data
        [Importer]
        tag_redump
        2019-04-28
        [Importer]
        variant_name
        CUE, USA
        [Importer]
        x_name
        David Beckham Soccer, CUE, USA, Redump
        [Importer]
        _type
        2
        [Importer]
        __imported
        2018-01-30
        [Importer]

        Override the images from the main game entry. (It can be useful to upload language-specific screens, but don't use unless needed):

        front image
        __back image
        title image
        banner image
        screen1 image
        screen2 image
        screen3 image
        screen4 image
        screen5 image