Navigation:

Capcom Generation - Dai-4-shuu Kokou no Eiyuu PlayStation

Game

Variants

Unpublished Variants

    Disabled Variants

      Merged Game Entries

        front image

        Click on an image to upload and/or replace an image.

        __back image
        banner image

        Your changes must be accepted by a moderator before they are fully visible. Until then, your changes will be shown with orange color.

        title image
        screen1 image
        screen2 image
        screen3 image
        screen4 image
        screen5 image
        311f2815-8fa3-4a56-bae4-42bf24a749fb

        Capcom Generation - Dai-4-shuu Kokou no Eiyuu

        developer
        Capcom
        thevoice
        front_sha1 thevoice
        game_name
        Capcom Generation - Dai-4-shuu Kokou no Eiyuu
        [Importer]
        longplay_url thevoice
        mobygames_url thevoice
        platform
        psx
        [Importer]
        players
        1 - 2 (2)
        thevoice
        publish
        1
        thevoice
        publisher
        Capcom
        thevoice
        screen1_sha1 thevoice
        screen2_sha1 thevoice
        screen3_sha1 thevoice
        screen4_sha1 thevoice
        screen5_sha1 thevoice
        tags thevoice
        title_sha1 thevoice
        wikipedia_url thevoice
        year
        1998
        thevoice
        _type
        1
        [Importer]
        __back_sha1 thevoice
        d4759b8e-a81d-59e3-aa3f-eaa817281021

        CUE, Europe, Blazing Guns

        cue_sheets
        [{"data": "FILE \"Capcom Generations (Europe) (Disc 4) (Blazing Guns) (Track 1).bin\" BINARY\r\nTRACK 01 MODE2/2352\r\nINDEX 01 00:00:00\r\nFILE \"Capcom Generations (Europe) (Disc 4) (Blazing Guns) (Track 2).bin\" BINARY\r\nTRACK 02 AUDIO\r\nINDEX 00 00:00:00\r\nINDEX 01 00:02:00", "name": "Capcom Generations (Europe) (Disc 4) (Blazing Guns).cue"}]
        [Importer]
        file_list
        [{"name": "Capcom Generations (Europe) (Disc 4) (Blazing Guns) (Track 1).bin", "sha1": "3ea1c7c1b4aa3831322c7fede79fc85b21f743da", "size": 328849584}, {"name": "Capcom Generations (Europe) (Disc 4) (Blazing Guns) (Track 2).bin", "sha1": "bd1fde88c2b79e3cf8821c969373460d51f3155a", "size": 32104800}]
        [Importer]
        front_sha1 thevoice
        languages
        en
        thevoice
        parent_uuid
        311f2815-8fa3-4a56-bae4-42bf24a749fb
        thevoice
        platform
        psx psx
        [Importer]
        psx_model
        pal
        [Importer]
        tag_redump
        2019-04-28
        [Importer]
        title_sha1 thevoice
        variant_name
        CUE, Europe, Blazing Guns
        [Importer]
        x_name
        Capcom Generations, CUE, Europe, Blazing Guns, Redump
        [Importer]
        _type
        2
        [Importer]
        __back_sha1 thevoice

        Override the images from the main game entry. (It can be useful to upload language-specific screens, but don't use unless needed):

        front image
        __back image
        title image
        banner image
        screen1 image
        screen2 image
        screen3 image
        screen4 image
        screen5 image
        8da8d2eb-395a-5190-b537-238b3ec455a3

        CUE, Japan

        cue_sheets
        [{"data": "FILE \"Capcom Generation - Dai-4-shuu Kokou no Eiyuu (Japan).bin\" BINARY\r\nTRACK 01 MODE2/2352\r\nINDEX 01 00:00:00", "name": "Capcom Generation - Dai-4-shuu Kokou no Eiyuu (Japan).cue"}]
        [Importer]
        file_list
        [{"name": "Capcom Generation - Dai-4-shuu Kokou no Eiyuu (Japan).bin", "sha1": "6ee8a74402294d3186fa53b430a6d219935e1f36", "size": 367803408}]
        [Importer]
        languages
        ja
        thevoice
        parent_uuid
        311f2815-8fa3-4a56-bae4-42bf24a749fb
        [Importer]
        platform
        psx psx
        [Importer]
        psx_model
        ntsc-j
        [Importer]
        sbi_data
        [Importer]
        tag_redump
        2019-04-28
        [Importer]
        variant_name
        CUE, Japan
        [Importer]
        x_name
        Capcom Generation - Dai-4-shuu Kokou no Eiyuu, CUE, Japan, Redump
        [Importer]
        _type
        2
        [Importer]
        __imported
        2018-01-30
        [Importer]

        Override the images from the main game entry. (It can be useful to upload language-specific screens, but don't use unless needed):

        front image
        __back image
        title image
        banner image
        screen1 image
        screen2 image
        screen3 image
        screen4 image
        screen5 image