Navigation:

Micro Machines V3 PlayStation

Game

Variants

Unpublished Variants

    Disabled Variants

      Merged Game Entries

      front image

      Click on an image to upload and/or replace an image.

      __back image
      banner image

      Your changes must be accepted by a moderator before they are fully visible. Until then, your changes will be shown with orange color.

      -2
      Some variants are missing language info
      title image
      screen1 image
      screen2 image
      screen3 image
      screen4 image
      screen5 image
      1be6e221-8f77-4199-9c0c-4dc1726aea14

      Micro Machines V3

      developer
      Codemasters
      thevoice
      front_sha1 thevoice
      game_name
      Micro Machines V3
      [Importer]
      game_name_jp
      Micro Machines
      thevoice
      longplay_url thevoice
      mobygames_url thevoice
      platform
      psx
      [Importer]
      players
      1 - 2 (2)
      thevoice
      publish
      1
      thevoice
      publisher
      Codemasters
      thevoice
      screen1_sha1 thevoice
      screen2_sha1 thevoice
      screen3_sha1 thevoice
      screen4_sha1 thevoice
      screen5_sha1 thevoice
      tags thevoice
      title_sha1 thevoice
      wikipedia_url thevoice
      year
      1997
      thevoice
      _type
      1
      [Importer]
      __back_sha1 thevoice
      88d6ceee-79dd-43bc-a04e-cbfb4f6ace03

      Micro Machines

      disable
      Merged
      [System]
      game_name
      Micro Machines Micro Machines V3
      [Importer]
      languages
      ja
      thevoice
      parent_uuid
      1be6e221-8f77-4199-9c0c-4dc1726aea14
      thevoice
      platform
      psx psx
      [Importer]
      publish
      0 1
      [Importer]
      _type
      16
      [System]

      Override the images from the main game entry. (It can be useful to upload language-specific screens, but don't use unless needed):

      front image
      __back image
      title image
      banner image
      screen1 image
      screen2 image
      screen3 image
      screen4 image
      screen5 image
      c1fd61bd-bf09-5eb8-a58d-15fbb8171ba6

      CUE, Europe

      cue_sheets
      [{"data": "FILE \"Micro Machines V3 (Europe) (En,Fr,De,Es,It).bin\" BINARY\r\nTRACK 01 MODE2/2352\r\nINDEX 01 00:00:00", "name": "Micro Machines V3 (Europe) (En,Fr,De,Es,It).cue"}]
      [Importer]
      file_list
      [{"name": "Micro Machines V3 (Europe) (En,Fr,De,Es,It).bin", "sha1": "8119efe51563708714b76552a3cbc93407cb5b01", "size": 674461872}]
      [Importer]
      front_sha1 thevoice
      languages
      en, de, es, fr, it
      [Importer]
      parent_uuid
      1be6e221-8f77-4199-9c0c-4dc1726aea14
      [Importer]
      platform
      psx psx
      [Importer]
      psx_model
      pal
      [Importer]
      sbi_data
      [Importer]
      tag_redump
      2020-05-18
      [Importer]
      title_sha1 thevoice
      variant_name
      CUE, Europe
      [Importer]
      x_name
      Micro Machines V3, CUE, Europe, Redump
      [Importer]
      _type
      2
      [Importer]
      __back_sha1 thevoice
      __imported
      2018-01-30
      [Importer]

      Override the images from the main game entry. (It can be useful to upload language-specific screens, but don't use unless needed):

      front image
      __back image
      title image
      banner image
      screen1 image
      screen2 image
      screen3 image
      screen4 image
      screen5 image
      6b866262-b627-5d09-9d85-a2ff736ab3db

      CUE, Europe, EDC

      cue_sheets
      [{"data": "FILE \"Micro Machines V3 (Europe) (En,Fr,De,Es,It) (EDC).bin\" BINARY\r\nTRACK 01 MODE2/2352\r\nINDEX 01 00:00:00", "name": "Micro Machines V3 (Europe) (En,Fr,De,Es,It) (EDC).cue"}]
      [Importer]
      file_list
      [{"name": "Micro Machines V3 (Europe) (En,Fr,De,Es,It) (EDC).bin", "sha1": "198ecff2910c4e16678b0d50d08db90b8b67ce0c", "size": 674461872}]
      [Importer]
      front_sha1 thevoice
      languages
      en, de, es, fr, it
      [Importer]
      parent_uuid
      1be6e221-8f77-4199-9c0c-4dc1726aea14
      [Importer]
      platform
      psx psx
      [Importer]
      psx_model
      pal
      [Importer]
      sbi_data
      [Importer]
      tag_redump
      2020-05-18
      [Importer]
      title_sha1 thevoice
      variant_name
      CUE, Europe, EDC
      [Importer]
      x_name
      Micro Machines V3, CUE, Europe, EDC, Redump
      [Importer]
      _type
      2
      [Importer]
      __back_sha1 thevoice
      __imported
      2018-01-30
      [Importer]

      Override the images from the main game entry. (It can be useful to upload language-specific screens, but don't use unless needed):

      front image
      __back image
      title image
      banner image
      screen1 image
      screen2 image
      screen3 image
      screen4 image
      screen5 image
      f8e27b61-ca21-53c9-a4d2-a97d5be96d98

      CUE, Japan

      cue_sheets
      [{"data": "FILE \"Micro Machines (Japan).bin\" BINARY\r\nTRACK 01 MODE2/2352\r\nINDEX 01 00:00:00", "name": "Micro Machines (Japan).cue"}]
      [Importer]
      file_list
      [{"name": "Micro Machines (Japan).bin", "sha1": "dc8ec227740f85b5bf20e2f067657a66e3839eaa", "size": 670390560}]
      [Importer]
      front_sha1 thevoice
      languages
      [Importer]
      parent_uuid
      1be6e221-8f77-4199-9c0c-4dc1726aea14
      [System]
      platform
      psx psx
      [Importer]
      psx_model
      ntsc-j
      [Importer]
      sbi_data
      [Importer]
      tag_redump
      2020-05-18
      [Importer]
      title_sha1 thevoice
      variant_name
      CUE, Japan
      [Importer]
      x_name
      Micro Machines, CUE, Japan, Redump
      [Importer]
      _type
      2
      [Importer]
      __back_sha1 thevoice
      __imported
      2018-01-30
      [Importer]
      __original_parent_uuid
      f8e27b61-ca21-53c9-a4d2-a97d5be96d98
      [System]

      Override the images from the main game entry. (It can be useful to upload language-specific screens, but don't use unless needed):

      front image
      __back image
      title image
      banner image
      screen1 image
      screen2 image
      screen3 image
      screen4 image
      screen5 image
      25abe51a-94b1-5e7f-8899-4d85b8f22c80

      CUE, USA

      cue_sheets
      [{"data": "FILE \"Micro Machines V3 (USA).bin\" BINARY\r\nTRACK 01 MODE2/2352\r\nINDEX 01 00:00:00", "name": "Micro Machines V3 (USA).cue"}]
      [Importer]
      file_list
      [{"name": "Micro Machines V3 (USA).bin", "sha1": "dfc2cff879d279bcec1c27bf1abdb69e2bb6777e", "size": 703967712}]
      [Importer]
      languages
      [Importer]
      parent_uuid
      1be6e221-8f77-4199-9c0c-4dc1726aea14
      [Importer]
      platform
      psx psx
      [Importer]
      psx_model
      ntsc
      [Importer]
      sbi_data
      [Importer]
      tag_redump
      2020-05-18
      [Importer]
      variant_name
      CUE, USA
      [Importer]
      x_name
      Micro Machines V3, CUE, USA, Redump
      [Importer]
      _type
      2
      [Importer]
      __imported
      2018-01-30
      [Importer]

      Override the images from the main game entry. (It can be useful to upload language-specific screens, but don't use unless needed):

      front image
      __back image
      title image
      banner image
      screen1 image
      screen2 image
      screen3 image
      screen4 image
      screen5 image